<?xml version="1.0" standalone="no"?>
<!DOCTYPE svg PUBLIC "-//W3C//DTD SVG 1.1//EN" "http://www.w3.org/Graphics/SVG/1.1/DTD/svg11.dtd" >
<svg>
<metadata>
Created by FontForge 20120731 at Thu Jul 18 00:31:43 2019
 By www
Copyright (c) 2008 by Jos Buivenga/exljbris. All rights reserved.
</metadata>
<defs>
<font id="MuseoW01-500" horiz-adv-x="1255" >
  <font-face 
    font-family="MuseoW01-500"
    font-weight="400"
    font-stretch="normal"
    units-per-em="2048"
    panose-1="2 0 0 0 0 0 0 0 0 0"
    ascent="1537"
    descent="-511"
    x-height="1036"
    cap-height="1446"
    bbox="-109 -430 2210 1827"
    underline-thickness="102"
    underline-position="-205"
    unicode-range="U+000D-2122"
  />
<missing-glyph horiz-adv-x="0" 
 />
    <glyph glyph-name=".notdef" horiz-adv-x="0" 
 />
    <glyph glyph-name=".null" horiz-adv-x="0" 
 />
    <glyph glyph-name="uni000D" unicode="&#xd;" horiz-adv-x="0" 
 />
    <glyph glyph-name="space" unicode=" " horiz-adv-x="551" 
 />
    <glyph glyph-name="space" unicode="&#xa0;" horiz-adv-x="551" 
 />
    <glyph glyph-name="exclam" unicode="!" horiz-adv-x="643" 
d="M219 1446h205l-12 -1049h-179zM221 199h203v-199h-203v199z" />
    <glyph glyph-name="quotedbl" unicode="&#x22;" horiz-adv-x="696" 
d="M414 1470h155v-385h-155v385zM127 1470h156v-385h-156v385z" />
    <glyph glyph-name="numbersign" unicode="#" horiz-adv-x="1446" 
d="M342 391h-266l24 152h269l59 344h-264l24 149h267l71 410h166l-71 -410h317l72 410h166l-72 -410h268l-26 -149h-267l-61 -344h266l-27 -152h-264l-69 -391h-166l67 391h-317l-68 -391h-166zM852 543l61 344h-317l-61 -344h317z" />
    <glyph glyph-name="dollar" unicode="$" horiz-adv-x="1118" 
d="M231 377q36 -60 88 -108q22 -20 49.5 -39.5t60.5 -34.5t71 -24t82 -9q55 0 100.5 16t78 44.5t50.5 68t18 86.5q0 57 -30 99t-79 76t-112 63.5t-128 60.5t-128 67.5t-112 86t-79 114t-30 152.5q0 71 27.5 133.5t77.5 110.5t119 80.5t153 43.5v193h149v-191
q55 -6 114.5 -23t109 -48.5t82 -78.5t32.5 -112v-119h-188v68q0 28 -17 52.5t-46.5 41.5t-68 27t-81.5 10q-59 0 -106 -14.5t-80 -39.5t-50.5 -59t-17.5 -73q0 -57 30 -98t79 -73t111.5 -60t127.5 -58t127.5 -66t111.5 -85.5t79 -116.5t30 -158q0 -74 -26.5 -142t-75.5 -122
t-119 -90.5t-158 -46.5v-191h-149v189q-55 6 -102.5 21.5t-87.5 36t-72.5 45t-58.5 48.5q-61 57 -101 125z" />
    <glyph glyph-name="percent" unicode="%" horiz-adv-x="1604" 
d="M430 864q-65 0 -121 23.5t-98 65t-66 96.5t-24 118q0 62 24 117t66 96.5t98 65.5t121 24q64 0 121 -24t99 -65.5t66.5 -96.5t24.5 -117q0 -63 -24.5 -118t-66.5 -96.5t-99 -65t-121 -23.5zM1257 1446h193l-1106 -1446h-192zM430 1016q32 0 60 11.5t48.5 31.5t32 48
t11.5 60q0 31 -11.5 59t-32 49t-48.5 33.5t-60 12.5t-60 -12.5t-48 -33.5t-31.5 -49t-11.5 -59q0 -32 11.5 -60t31.5 -48t48 -31.5t60 -11.5zM862 279q0 62 24 117t66 96.5t99 65.5t123 24q63 0 119.5 -24t99 -65.5t67.5 -96.5t25 -117q0 -63 -25 -118.5t-67.5 -96.5
t-99 -65t-119.5 -24q-66 0 -123 24t-99 65t-66 96.5t-24 118.5zM1022 279q0 -32 11.5 -60t32 -48.5t48 -32t60.5 -11.5q31 0 58.5 11.5t48 32t32.5 48.5t12 60q0 31 -12 59t-32.5 49t-48 33t-58.5 12q-33 0 -60.5 -12t-48 -33t-32 -49t-11.5 -59z" />
    <glyph glyph-name="ampersand" unicode="&#x26;" horiz-adv-x="1307" 
d="M90 414q0 56 16.5 112.5t48 105.5t78 86.5t107.5 55.5v4q-53 22 -93 65q-18 18 -34.5 42.5t-29.5 56t-21 70.5t-8 86q0 84 31 152.5t88 117t137 75.5t178 27q35 0 67.5 -3.5t58.5 -7.5q30 -5 56 -11l-51 -162q-18 3 -36 7q-16 2 -35.5 4.5t-37.5 2.5q-56 0 -102.5 -16.5
t-79.5 -46.5t-51.5 -71t-18.5 -89q0 -34 10 -73.5t39.5 -73.5t81.5 -57t136 -23h260v186h198v-186h183v-176h-183v-193q0 -120 -34 -214.5t-98 -159t-154.5 -98.5t-204.5 -34q-111 0 -203 33.5t-158.5 93t-103.5 139.5t-37 173zM297 416q0 -51 20 -97.5t58.5 -81t93 -55
t123.5 -20.5q67 0 121 19t92 59t59 102t21 147v185h-258q-159 0 -244.5 -68t-85.5 -190z" />
    <glyph glyph-name="quotesingle" unicode="'" horiz-adv-x="412" 
d="M127 1470h158v-385h-158v385z" />
    <glyph glyph-name="parenleft" unicode="(" horiz-adv-x="676" 
d="M170 674q0 230 57 440.5t174 390.5h174q-114 -192 -169.5 -394.5t-55.5 -422.5q0 -229 59 -453t177 -430h-176q-58 90 -102.5 192.5t-75 213.5t-46.5 227.5t-16 235.5z" />
    <glyph glyph-name="parenright" unicode=")" horiz-adv-x="676" 
d="M90 -195q118 206 177 430t59 453q0 220 -55.5 422.5t-170.5 394.5h174q118 -180 175 -390.5t57 -440.5q0 -119 -16 -235.5t-46.5 -227.5t-75 -213.5t-102.5 -192.5h-176z" />
    <glyph glyph-name="asterisk" unicode="*" horiz-adv-x="983" 
d="M182 780l183 226v4l-279 75l53 172l273 -102l-15 291h187l-17 -291l275 102l55 -172l-281 -75v-4l181 -226l-146 -106l-157 241h-5l-159 -241z" />
    <glyph glyph-name="plus" unicode="+" 
d="M86 664h459v503h168v-503h456v-160h-456v-504h-168v504h-459v160z" />
    <glyph glyph-name="comma" unicode="," horiz-adv-x="492" 
d="M373 215l-174 -422h-154l127 422h201z" />
    <glyph glyph-name="hyphen" unicode="-" horiz-adv-x="883" 
d="M143 672h598v-176h-598v176z" />
    <glyph glyph-name="hyphen" unicode="&#xad;" horiz-adv-x="883" 
d="M143 672h598v-176h-598v176z" />
    <glyph glyph-name="period" unicode="." horiz-adv-x="492" 
d="M143 211h203v-211h-203v211z" />
    <glyph glyph-name="slash" unicode="/" horiz-adv-x="709" 
d="M522 1524h176l-520 -1610h-176z" />
    <glyph glyph-name="zero" unicode="0" horiz-adv-x="1243" 
d="M623 -25q-145 0 -243 58.5t-158 160t-85.5 238t-25.5 293.5q0 156 25.5 292t85.5 236.5t158 158.5t243 58q144 0 242 -58t157.5 -158.5t85 -236.5t25.5 -292q0 -157 -25.5 -293.5t-85 -238t-157.5 -160t-242 -58.5zM623 162q88 0 146.5 43.5t93 119.5t49 179t14.5 221
q0 117 -14.5 219t-49 177.5t-93 119t-146.5 43.5q-89 0 -148 -43.5t-94 -119t-49.5 -177.5t-14.5 -219q0 -118 14.5 -221t49.5 -179t94 -119.5t148 -43.5z" />
    <glyph glyph-name="one" unicode="1" horiz-adv-x="1032" 
d="M131 176h318v934v33t1 29q0 15 1 28h-5q-5 -10 -14 -23q-16 -24 -53 -61l-135 -133l-123 127l346 336h186v-1270h316v-176h-838v176z" />
    <glyph glyph-name="two" unicode="2" horiz-adv-x="1174" 
d="M78 166q0 80 20.5 143.5t56 115.5t82.5 93.5t100 77t108.5 67t108.5 62.5t100 64.5t82.5 72.5t56 85.5t20.5 105.5q0 50 -18 92t-51 72.5t-80 47.5t-105 17q-48 0 -89 -11.5t-71 -30t-46.5 -43.5t-16.5 -52v-64h-189v123q0 71 42 121.5t105 82.5t136.5 47t136.5 15
q99 0 182.5 -30t144 -84.5t94.5 -131t34 -169.5t-31.5 -165t-83 -129t-117.5 -102.5t-134.5 -85t-134.5 -77t-117.5 -79.5t-83 -90.5t-31.5 -111.5q0 -22 12.5 -30.5t38.5 -8.5h514q22 0 33.5 12t11.5 33v92h188v-182q0 -69 -30.5 -100t-100.5 -31h-741q-42 0 -69 9.5
t-42 29.5t-20.5 51.5t-5.5 75.5z" />
    <glyph glyph-name="three" unicode="3" horiz-adv-x="1108" 
d="M164 332q43 -46 99 -82q48 -31 115.5 -56.5t151.5 -25.5q58 0 110.5 19.5t91.5 54t62 83t23 107.5q0 61 -25 109t-67.5 81t-99 50.5t-119.5 17.5h-103l-43 109l302 379q16 23 31.5 40.5t26.5 29.5q13 14 25 24v4q-13 -2 -31 -3q-32 -3 -91 -3h-279q-45 0 -45 -45v-92
h-188v182q0 69 27.5 100t97.5 31h761v-129l-381 -459q71 -8 144 -35.5t132 -79t96.5 -128t37.5 -181.5q0 -90 -35 -173t-100 -146.5t-156.5 -101.5t-204.5 -38q-57 0 -107 8.5t-94 23t-81.5 32.5t-68.5 37q-72 45 -126 102z" />
    <glyph glyph-name="four" unicode="4" horiz-adv-x="1178" 
d="M35 514l651 932h234v-887h225v-176h-225v-383h-205v383h-680v131zM717 1057q0 24 1 50t3 48q2 26 4 49h-4q-11 -20 -23 -41q-11 -18 -24 -39t-27 -41l-315 -434q-14 -20 -27.5 -36t-24.5 -29q-12 -15 -24 -27v-4q17 1 37 3q17 1 39.5 2t46.5 1h338v498z" />
    <glyph glyph-name="five" unicode="5" horiz-adv-x="1192" 
d="M215 328q36 -45 86 -80q43 -30 105.5 -55t146.5 -25q68 0 125 22.5t98.5 61.5t64.5 91.5t23 113.5q0 67 -27 122t-74 93t-109.5 59t-133.5 21q-60 0 -110.5 -11.5t-86.5 -25.5q-43 -17 -77 -37l-84 39l57 598q6 69 34 100t97 31h504q69 0 100 -31t31 -100v-182h-186v92
q0 23 -12 34t-33 11h-303q-22 0 -32 -11t-13 -34l-29 -264q-2 -17 -3.5 -31t-3.5 -24q-2 -11 -3 -21h4q23 11 52 21q25 8 59 15t75 7q117 0 212 -37t162.5 -101.5t104.5 -151t37 -185.5q0 -95 -37 -181.5t-105 -152.5t-164 -105t-214 -39q-56 0 -105.5 8.5t-91.5 23
t-77 32.5t-63 37q-66 45 -112 102z" />
    <glyph glyph-name="six" unicode="6" horiz-adv-x="1161" 
d="M618 -25q-115 0 -214 47.5t-171.5 134.5t-113.5 210t-41 274q0 94 17 192t52 190.5t88.5 173.5t125.5 142t164 96t204 35q65 0 116.5 -9.5t88.5 -20.5q43 -13 76 -29l-66 -174q-27 12 -60 23q-28 9 -66 16.5t-81 7.5q-99 0 -175 -42.5t-129.5 -112.5t-85.5 -159t-44 -182
h4q22 33 57 59.5t77.5 45t90 28t95.5 9.5q103 0 187 -36.5t144 -100t92.5 -149.5t32.5 -185q0 -107 -34.5 -196t-96.5 -153t-147 -99.5t-187 -35.5zM293 555q0 -69 24.5 -139t68 -126.5t102.5 -92t128 -35.5q63 0 112.5 23t84 62.5t52.5 94t18 117.5q0 65 -20.5 120
t-58.5 94.5t-93 62t-125 22.5q-61 0 -114.5 -17t-93 -45.5t-62.5 -65t-23 -75.5z" />
    <glyph glyph-name="seven" unicode="7" horiz-adv-x="1075" 
d="M743 1139q17 31 32.5 55.5t26.5 41.5q13 20 25 36v4q-10 -2 -25 -3q-26 -3 -79 -3h-436q-45 0 -45 -45v-92h-189v182q0 69 28 100t97 31h879v-139l-701 -1307h-227z" />
    <glyph glyph-name="eight" unicode="8" horiz-adv-x="1180" 
d="M86 414q0 44 10 83.5t27 74t38 63.5t44 53q52 55 119 96v4q-50 29 -90 72q-34 37 -61.5 92.5t-27.5 130.5t29.5 145t87 124t141.5 86t193 32q103 0 187 -29.5t143 -81.5t91 -123.5t32 -156.5q0 -81 -27.5 -144t-60.5 -108q-39 -52 -87 -92v-4q49 -29 89 -62.5t68.5 -74
t43.5 -89t15 -106.5q0 -84 -36.5 -161t-102.5 -135.5t-158 -93t-203 -34.5q-102 0 -193.5 31t-160.5 88t-109.5 138t-40.5 182zM584 852q10 -5 25.5 -11t32 -11t31 -9t23.5 -4q18 0 44.5 21t51 55.5t41.5 80t17 93.5q0 50 -19 90t-53 68.5t-80.5 43.5t-101.5 15
q-59 0 -105.5 -16t-78.5 -43.5t-49 -65t-17 -80.5q0 -48 19 -82t51.5 -60t76 -46t91.5 -39zM293 424q0 -61 24 -109.5t65 -82.5t95 -52t113 -18q57 0 109.5 18t93.5 50t65.5 77t24.5 99q0 47 -19 82.5t-52 63t-77.5 49t-95.5 42.5q-21 9 -44.5 18t-45 17t-38 13t-22.5 5
q-19 0 -52 -21t-65 -57.5t-55.5 -86t-23.5 -107.5z" />
    <glyph glyph-name="nine" unicode="9" horiz-adv-x="1161" 
d="M217 211q27 -14 60 -25q28 -9 65.5 -16.5t81.5 -7.5q99 0 175 43t129.5 113t85.5 159t44 182h-4q-22 -34 -57 -60t-77 -44t-89.5 -27.5t-95.5 -9.5q-103 0 -187.5 36t-144.5 99.5t-92.5 149t-32.5 184.5q0 107 34.5 196t96.5 152.5t147 99t187 35.5q115 0 214 -47
t171.5 -134t113.5 -210t41 -274q0 -94 -17 -192.5t-52 -190.5t-88 -173.5t-125.5 -142t-164.5 -96t-204 -35.5q-65 0 -117 9.5t-88 20.5q-43 13 -75 30zM575 688q61 0 114 17t93 45t63 65t23 76q0 70 -24.5 140t-68 126t-102.5 91.5t-128 35.5q-63 0 -112.5 -23t-83.5 -62.5
t-52 -94t-18 -117.5q0 -65 20 -119.5t58 -94.5t93 -62.5t125 -22.5z" />
    <glyph glyph-name="colon" unicode=":" horiz-adv-x="602" 
d="M201 1036h202v-211h-202v211zM201 211h202v-211h-202v211z" />
    <glyph glyph-name="semicolon" unicode=";" horiz-adv-x="602" 
d="M201 1036h202v-211h-202v211zM197 215h198l-149 -422h-154z" />
    <glyph glyph-name="less" unicode="&#x3c;" 
d="M137 651l955 426v-182l-734 -309v-4l734 -310v-182l-955 426v135z" />
    <glyph glyph-name="equal" unicode="=" 
d="M139 856h977v-160h-977v160zM139 469h977v-160h-977v160z" />
    <glyph glyph-name="greater" unicode="&#x3e;" 
d="M152 272l731 310v4l-731 309v182l954 -426v-135l-954 -426v182z" />
    <glyph glyph-name="question" unicode="?" horiz-adv-x="928" 
d="M305 494q0 78 26 135.5t64.5 103.5t83.5 85t83.5 78.5t64.5 84.5t26 104q0 43 -17.5 80t-48.5 64.5t-73.5 43t-93.5 15.5q-49 0 -91 -13.5t-74 -29.5q-37 -19 -69 -43l-110 141q40 37 95 66q47 25 112.5 45.5t150.5 20.5q87 0 164.5 -26.5t136 -75.5t93 -118.5
t34.5 -154.5t-27 -146.5t-67 -109.5t-87 -88t-87 -80.5t-67 -87t-27 -107.5v-84h-195v97zM301 199h203v-199h-203v199z" />
    <glyph glyph-name="at" unicode="@" horiz-adv-x="1561" 
d="M82 494q0 105 26.5 202t74.5 181t116 153t151 118t179 76t200 27q148 0 250 -34.5t165 -92t90.5 -132.5t27.5 -156v-580h147v-150h-559q-96 0 -174.5 31.5t-134 85t-85.5 123.5t-30 148q0 76 30 145t85.5 122t133.5 84.5t175 31.5h221q-2 43 -24 81.5t-64 67t-103 45
t-140 16.5q-80 0 -152 -22t-134 -61t-112.5 -94t-86 -120.5t-55 -140.5t-19.5 -155q0 -122 42 -229t118 -186.5t183 -126t238 -46.5v-162q-172 0 -315.5 58.5t-246.5 160t-160.5 238t-57.5 293.5zM727 496q0 -50 17.5 -94t49 -76.5t75 -51t96.5 -18.5h206v483h-202
q-54 0 -98.5 -19.5t-76.5 -52.5t-49.5 -77t-17.5 -94z" />
    <glyph glyph-name="A" unicode="A" horiz-adv-x="1362" 
d="M25 176h28q28 0 43.5 8.5t24.5 36.5l452 1225h215l453 -1225q9 -28 25.5 -36.5t42.5 -8.5h30v-176h-114q-39 0 -65.5 5.5t-45 19t-32 36.5t-25.5 58l-109 297h-532l-109 -297q-13 -35 -27 -58t-32.5 -36.5t-45 -19t-65.5 -5.5h-112v176zM897 588l-158 440q-10 29 -20 64
t-18 66q-10 36 -19 73h-4q-9 -37 -18 -73q-8 -31 -17.5 -66t-19.5 -64l-158 -440h432z" />
    <glyph glyph-name="B" unicode="B" horiz-adv-x="1264" 
d="M209 1270h-133v176h618q91 0 168.5 -25t133 -72t87 -115.5t31.5 -156.5q0 -59 -14.5 -108.5t-39.5 -88.5t-57.5 -67.5t-68.5 -46.5v-4q57 -17 101.5 -51t74.5 -80.5t45.5 -102.5t15.5 -116q0 -102 -36.5 -179.5t-99.5 -129t-147.5 -77.5t-180.5 -26h-367q-69 0 -100 31
t-31 100v1139zM696 838q48 0 86.5 16.5t65.5 45.5t42 69t15 88t-14.5 87t-41.5 67t-66.5 43.5t-90.5 15.5h-278v-432h282zM414 221q0 -21 11.5 -33t33.5 -12h258q57 0 102.5 17.5t77 50t48 77.5t16.5 101q0 55 -17.5 100.5t-49.5 78.5t-77 51t-100 18h-303v-449z" />
    <glyph glyph-name="C" unicode="C" horiz-adv-x="1436" 
d="M70 735q0 157 55 291.5t152 233t230 154.5t288 56q48 0 107.5 -7t119.5 -22.5t117 -40t101 -59.5t70.5 -80.5t26.5 -103.5v-141h-188v82q0 45 -34.5 79.5t-86.5 57t-113.5 34t-115.5 11.5q-109 0 -203.5 -39.5t-164 -111t-109 -172t-39.5 -222.5q0 -118 40 -221.5
t110.5 -180t165.5 -121t206 -44.5q54 0 102 8.5t90.5 22t78.5 31.5t65 36q69 43 121 99l110 -148q-63 -68 -148 -121q-36 -23 -81 -44.5t-97.5 -38.5t-113.5 -27.5t-129 -10.5q-108 0 -204.5 26.5t-177.5 75.5t-146.5 118t-110.5 153.5t-69.5 182.5t-24.5 204z" />
    <glyph glyph-name="D" unicode="D" horiz-adv-x="1464" 
d="M211 1270h-133v176h586q165 0 300 -48.5t230.5 -140.5t148 -226.5t52.5 -305.5q0 -172 -52.5 -307t-148 -228t-230.5 -141.5t-300 -48.5h-322q-69 0 -100 31t-31 100v1139zM416 221q0 -21 11.5 -33t33.5 -12h188q121 0 219 35.5t168 105.5t108 172t38 236
q0 133 -38.5 234.5t-108 170.5t-168 104.5t-218.5 35.5h-233v-1049z" />
    <glyph glyph-name="E" unicode="E" horiz-adv-x="1163" 
d="M211 1270h-133v176h850q69 0 100 -31t31 -100v-182h-187v92q0 45 -45 45h-411v-453h506v-176h-506v-420q0 -21 11.5 -33t33.5 -12h422q21 0 33 12t12 33v92h188v-182q0 -69 -31 -100t-100 -31h-643q-69 0 -100 31t-31 100v1139z" />
    <glyph glyph-name="F" unicode="F" horiz-adv-x="1051" 
d="M211 1270h-133v176h796q70 0 101 -31t31 -100v-182h-187v92q0 45 -45 45h-358v-475h493v-177h-493v-618h-205v1270z" />
    <glyph glyph-name="G" unicode="G" horiz-adv-x="1507" 
d="M72 729q0 104 25.5 199.5t71.5 177.5t112 149.5t147 115t175 73.5t198 26q65 0 121.5 -7.5t105 -20.5t89 -29t72.5 -32q76 -40 128 -89l-117 -149q-47 38 -108 69q-52 26 -124.5 48t-162.5 22q-108 0 -203 -41t-165.5 -114.5t-111 -175t-40.5 -222.5q0 -126 40.5 -229.5
t111.5 -177t166.5 -114t205.5 -40.5q48 0 91.5 7.5t81.5 20.5t70.5 29t59.5 33q62 40 109 90v146q0 21 -12 33t-33 12h-89v176h191q69 0 100 -31t31 -100v-584h-180v90v22.5t1 20.5q0 11 1 19h-4q-49 -50 -117 -89q-58 -33 -142 -60.5t-192 -27.5q-96 0 -185.5 24.5t-168 71
t-143 113t-110.5 150t-71.5 183.5t-25.5 212z" />
    <glyph glyph-name="H" unicode="H" horiz-adv-x="1567" 
d="M211 1225q0 45 -45 45h-88v176h207q69 0 100 -31t31 -100v-506h735v506q0 69 31 100t100 31h207v-176h-88q-45 0 -45 -45v-1225h-205v635h-735v-635h-205v1225z" />
    <glyph glyph-name="I" unicode="I" horiz-adv-x="649" 
d="M86 176h141v1094h-141v176h477v-176h-141v-1094h141v-176h-477v176z" />
    <glyph glyph-name="J" unicode="J" horiz-adv-x="1069" 
d="M45 487h205v-55q0 -75 19.5 -126t52 -81.5t73 -43.5t82.5 -13q43 0 83.5 13.5t72 44t50.5 79t19 119.5v801q0 45 -45 45h-354v176h473q69 0 100 -31t31 -100v-899q0 -118 -37.5 -201.5t-98.5 -137t-138.5 -78t-157.5 -24.5t-157 25t-138 78.5t-98 137t-37 200.5v71z" />
    <glyph glyph-name="K" unicode="K" horiz-adv-x="1251" 
d="M211 1225q0 45 -45 45h-88v176h207q69 0 100 -31t31 -100v-477h137q40 0 70 9t49 40l321 559h230l-351 -600q-16 -27 -30.5 -45t-25.5 -29q-13 -13 -25 -20v-4q12 -5 25 -16q11 -10 25.5 -27.5t30.5 -47.5l218 -434q15 -32 40 -39.5t62 -7.5h39v-176h-113q-42 0 -72 3.5
t-52.5 15t-40 33t-35.5 57.5l-250 501q-19 35 -51.5 44.5t-77.5 9.5h-123v-664h-205v1225z" />
    <glyph glyph-name="L" unicode="L" horiz-adv-x="1112" 
d="M211 1225q0 45 -45 45h-88v176h207q69 0 100 -31t31 -100v-1094q0 -21 11.5 -33t33.5 -12h399q22 0 33.5 12t11.5 33v92h187v-182q0 -69 -31 -100t-100 -31h-619q-69 0 -100 31t-31 100v1094z" />
    <glyph glyph-name="M" unicode="M" horiz-adv-x="1755" 
d="M41 176h70q21 0 32 12t13 33l98 1225h211l340 -766q13 -29 25.5 -61t23.5 -59q12 -32 23 -62h4q11 30 23 62q10 27 22.5 59t25.5 61l340 766h211l99 -1225q2 -21 12.5 -33t32.5 -12h67v-176h-182q-69 0 -98 31t-33 100l-60 764q-2 32 -3 69.5t-1 69.5v74h-4
q-12 -39 -25 -77q-11 -33 -24.5 -70t-26.5 -66l-292 -635h-172l-293 635q-14 29 -27.5 66t-24.5 70q-13 39 -26 79h-4v-75q0 -32 -1 -70t-3 -70l-58 -764q-5 -69 -33.5 -100t-99.5 -31h-182v176z" />
    <glyph glyph-name="N" unicode="N" horiz-adv-x="1567" 
d="M78 176h88q22 0 33.5 12t11.5 33v1225h186l643 -916q20 -29 41.5 -63.5t39.5 -63.5q20 -34 40 -69h4q-4 34 -7 68q-3 29 -5 63t-2 65v785q0 69 31 100t102 31h205v-176h-88q-45 0 -45 -45v-1225h-185l-645 915q-20 29 -41 63.5t-38 64.5q-20 34 -39 69h-5q3 -35 6 -69
q2 -29 4.5 -63.5t2.5 -64.5v-784q0 -69 -31 -100t-100 -31h-207v176z" />
    <glyph glyph-name="O" unicode="O" horiz-adv-x="1624" 
d="M70 733q0 104 26 199t73.5 177t114.5 148.5t149 114t178 73t200 25.5q157 0 292.5 -56.5t235.5 -156t157.5 -234t57.5 -290.5q0 -107 -26 -204.5t-73.5 -181.5t-115 -152.5t-150 -117.5t-178.5 -75.5t-200 -26.5q-105 0 -200.5 26.5t-177.5 75.5t-149 117.5t-114.5 152.5
t-73.5 181.5t-26 204.5zM283 733q0 -120 41.5 -223t113 -179t167.5 -119.5t206 -43.5t206.5 43.5t168.5 119.5t113.5 179t41.5 223q0 116 -41.5 216t-113.5 173.5t-168.5 115.5t-206.5 42t-206 -42t-167.5 -115.5t-113 -173.5t-41.5 -216z" />
    <glyph glyph-name="P" unicode="P" horiz-adv-x="1212" 
d="M211 1270h-133v176h637q99 0 182 -32t143 -91.5t93.5 -143t33.5 -186.5t-33.5 -187.5t-93.5 -144.5t-143 -93t-182 -33h-299v-535h-205v1270zM682 711q64 0 114.5 19.5t86 56t54.5 89t19 117.5t-19 116.5t-54 87t-85.5 54.5t-113.5 19h-268v-559h266z" />
    <glyph glyph-name="Q" unicode="Q" horiz-adv-x="1624" 
d="M70 731q0 157 56.5 292t156 234.5t234.5 156t292 56.5q158 0 294.5 -56.5t236.5 -156t157 -234.5t57 -292q0 -136 -45.5 -257.5t-124.5 -217.5l166 -162l-123 -131l-165 166q-94 -75 -209.5 -114.5t-243.5 -39.5q-105 0 -200 26.5t-177 75.5t-149 117.5t-114.5 152.5
t-73 181.5t-25.5 202.5zM283 731q0 -119 40.5 -222t111.5 -178.5t167 -119t207 -43.5q72 0 128 15.5t96 34.5q46 22 81 50l-160 156l123 133l158 -162q49 68 77.5 155t28.5 181q0 117 -41 217.5t-113 173.5t-169 114.5t-209 41.5q-111 0 -207 -41.5t-167 -114.5
t-111.5 -173.5t-40.5 -217.5z" />
    <glyph glyph-name="R" unicode="R" horiz-adv-x="1266" 
d="M211 1270h-133v176h631q95 0 174.5 -29t136.5 -84t89 -133.5t32 -177.5q0 -91 -26.5 -159t-65.5 -115t-84.5 -73.5t-83.5 -35.5v-4q10 -5 21 -15q9 -8 20 -21t20 -30l174 -346q16 -32 40.5 -39.5t62.5 -7.5h26v-176h-100q-42 0 -72.5 3.5t-53 15t-40 33t-35.5 57.5
l-196 389q-14 25 -27 40t-29 23.5t-37 11t-51 2.5h-188v-575h-205v1270zM682 752q118 0 183 70t65 192t-64.5 189t-179.5 67h-270v-518h266z" />
    <glyph glyph-name="S" unicode="S" horiz-adv-x="1092" 
d="M190 336q45 -49 101 -87q48 -33 114.5 -60t147.5 -27q51 0 96 15t78.5 42.5t53.5 67.5t20 90q0 57 -30 99t-79 76t-112 63t-128.5 60t-128.5 67t-112 83.5t-79 110.5t-30 147q0 81 34 152t95.5 123t146.5 82t187 30q38 0 83.5 -6t91.5 -19t88.5 -34t75.5 -50.5t53 -68.5
t20 -88v-119h-189v68q0 28 -18.5 52.5t-49.5 41.5t-71.5 27t-83.5 10q-58 0 -105 -15t-80 -41.5t-51 -62t-18 -75.5q0 -55 30 -95t79 -72t111.5 -59t128 -57t128 -66t111.5 -85t79 -114.5t30 -154.5q0 -83 -31.5 -157.5t-90.5 -131t-144 -90t-193 -33.5q-58 0 -109 9
t-95.5 24t-82.5 34.5t-68 39.5q-71 48 -124 108z" />
    <glyph glyph-name="T" unicode="T" horiz-adv-x="1303" 
d="M549 1270h-291q-45 0 -45 -45v-92h-182v190q0 34 6 58t20.5 38t38 20.5t58.5 6.5h995q69 0 96 -27t27 -96v-190h-182v92q0 45 -46 45h-290v-1270h-205v1270z" />
    <glyph glyph-name="U" unicode="U" horiz-adv-x="1491" 
d="M195 1225q0 23 -12 34t-33 11h-89v176h207q69 0 100 -31t31 -100v-801q0 -81 25 -145.5t70 -109t109 -68t142 -23.5t142 23.5t109.5 68.5t70.5 109.5t25 146.5v799q0 69 32 100t101 31h205v-176h-89q-21 0 -33 -11t-12 -34v-719q0 -119 -39.5 -216.5t-111.5 -167.5
t-173 -108.5t-224 -38.5q-125 0 -226.5 38.5t-174.5 108.5t-112.5 167.5t-39.5 216.5v719z" />
    <glyph glyph-name="V" unicode="V" horiz-adv-x="1368" 
d="M121 1225q-9 28 -25.5 36.5t-42.5 8.5h-28v176h114q39 0 65.5 -5t45.5 -18.5t33 -36.5t26 -59l318 -891q10 -29 19.5 -63.5t17.5 -64.5l18 -70h4q8 35 17 70q8 30 17.5 64.5t20.5 63.5l318 891q13 36 27 59t32.5 36.5t45 18.5t65.5 5h114v-176h-28q-28 0 -43 -8.5
t-25 -36.5l-454 -1225h-218z" />
    <glyph glyph-name="W" unicode="W" horiz-adv-x="1982" 
d="M135 1225q-8 28 -25 36.5t-44 8.5h-31v176h117q38 0 67 -5t50.5 -18t36.5 -36t24 -60l223 -930q7 -29 12 -57t9 -49q4 -26 8 -47h4q4 21 9 46q5 21 11 49t15 58l290 1045h185l270 -1045q8 -30 13.5 -58t9.5 -49q4 -25 8 -46h4q2 21 6 47q3 21 8 49t12 57l228 930
q9 37 23.5 60t35.5 36t50 18t67 5h117v-176h-31q-28 0 -45 -8.5t-25 -36.5l-317 -1225h-238l-245 913q-10 35 -17.5 70.5t-12.5 64.5q-6 33 -11 64h-5q-6 -31 -13 -64q-6 -29 -15 -63.5t-19 -69.5l-262 -915h-239z" />
    <glyph glyph-name="X" unicode="X" horiz-adv-x="1210" 
d="M475 745l-291 474q-11 18 -21 28t-21 15t-24 6.5t-28 1.5h-53v176h121q37 0 64 -4.5t49 -16.5t40.5 -34t38.5 -56l162 -274q17 -30 33.5 -60.5t29.5 -54.5q15 -29 29 -55h4q12 26 26 55q12 24 28 54.5t34 60.5l164 274q20 34 38.5 56t41 34t50 16.5t65.5 4.5h119v-176
h-52q-16 0 -29 -1.5t-24.5 -6.5t-21.5 -15t-21 -28l-293 -474l457 -745h-232l-262 440q-18 30 -34.5 59.5t-29.5 52.5q-15 27 -28 52h-4q-12 -26 -26 -53q-12 -24 -28.5 -53.5t-33.5 -59.5l-260 -438h-232z" />
    <glyph glyph-name="Y" unicode="Y" horiz-adv-x="1235" 
d="M516 631l-366 588q-20 32 -38.5 41.5t-50.5 9.5h-41v176h95q37 0 64 -3.5t48.5 -15.5t41 -34t40.5 -58l219 -364q17 -30 33.5 -59t28.5 -52q14 -27 26 -51h5q11 24 25 51q12 23 28 52t35 59l217 364q21 36 40.5 58t41.5 34t49 15.5t63 3.5h94v-176h-38q-32 0 -51.5 -9.5
t-39.5 -41.5l-364 -588v-631h-205v631z" />
    <glyph glyph-name="Z" unicode="Z" horiz-adv-x="1192" 
d="M37 135l713 1004q21 30 40.5 54.5t34.5 41.5q18 20 33 37v4q-12 -2 -28 -3q-27 -3 -80 -3h-465q-45 0 -45 -45v-92h-187v182q0 69 31 100t100 31h928v-133l-715 -1006q-21 -30 -40 -54.5t-34 -41.5q-18 -20 -32 -35v-4q12 1 28 2q14 1 33 1.5t45 0.5h510q22 0 33.5 12
t11.5 33v92h189v-182q0 -69 -31 -100t-100 -31h-973v135z" />
    <glyph glyph-name="bracketleft" unicode="[" horiz-adv-x="670" 
d="M199 1374q0 69 31 100t100 31h207v-149h-119q-45 0 -45 -45v-1309q0 -45 45 -45h119v-152h-207q-69 0 -100 31t-31 101v1437z" />
    <glyph glyph-name="backslash" unicode="\" horiz-adv-x="696" 
d="M10 1524h176l521 -1610h-177z" />
    <glyph glyph-name="bracketright" unicode="]" horiz-adv-x="670" 
d="M252 -43q45 0 45 45v1309q0 45 -45 45h-119v149h207q71 0 102 -31t31 -100v-1437q0 -70 -31 -101t-102 -31h-207v152h119z" />
    <glyph glyph-name="asciicircum" unicode="^" 
d="M551 1446h129l407 -940h-178l-295 721l-292 -721h-181z" />
    <glyph glyph-name="underscore" unicode="_" horiz-adv-x="1122" 
d="M1112 0v-160h-1102v160h1102z" />
    <glyph glyph-name="grave" unicode="`" horiz-adv-x="776" 
d="M170 1806h201l149 -260h-155z" />
    <glyph glyph-name="a" unicode="a" horiz-adv-x="1114" 
d="M76 291q0 83 34 142t89 98.5t124 62t138 34t132 14.5t107 3h45v10q0 69 -13 116t-41 76.5t-71 42.5t-104 13q-18 0 -47 -3t-56.5 -11.5t-47 -24.5t-19.5 -41v-59h-186v102q0 42 19.5 73t51 53t71 35.5t79.5 21t76 10t61 2.5q126 0 208.5 -31t130.5 -85.5t67.5 -129
t19.5 -160.5v-440q0 -23 12 -34t33 -11h84v-170h-186q-69 0 -99 31.5t-30 87.5q0 13 0.5 24.5t1.5 19.5q1 10 2 17h-4q-27 -58 -72 -103q-20 -19 -45 -37.5t-57 -32.5t-71 -23t-85 -9q-67 0 -130 20.5t-112.5 60t-79.5 98.5t-30 137zM276 301q0 -32 12 -61.5t36.5 -53
t61 -37.5t85.5 -14q63 0 114 30t87.5 77.5t56 106t19.5 116.5v35h-52q-37 0 -82.5 -1.5t-92.5 -7.5t-91 -18.5t-78 -35t-55 -55.5t-21 -81z" />
    <glyph glyph-name="b" unicode="b" horiz-adv-x="1229" 
d="M166 1231q0 45 -45 45h-84v170h196q70 0 101 -31t31 -100v-338q0 -19 -1 -34.5t-2 -26.5q-1 -13 -2 -25h5q28 47 75 85q20 16 45.5 31t57.5 27t70.5 19.5t84.5 7.5q105 0 189 -39.5t143 -111t91 -171.5t32 -221q0 -124 -35.5 -224t-98 -171t-149 -109.5t-188.5 -38.5
q-87 0 -148.5 27t-101.5 60q-47 39 -76 88h-4q1 -10 2 -22q1 -11 1.5 -25t0.5 -31v-72h-190v1231zM360 514q0 -69 18 -135.5t55 -118t91.5 -83.5t128.5 -32q61 0 115.5 25t95.5 72.5t64.5 116.5t23.5 157q0 84 -21.5 152.5t-60.5 117t-93.5 75t-119.5 26.5q-57 0 -111 -21
t-95 -66.5t-66 -116t-25 -169.5z" />
    <glyph glyph-name="c" unicode="c" horiz-adv-x="1092" 
d="M74 518q0 114 40 213.5t113 172.5t176 115t228 42q31 0 71 -4.5t81.5 -15t81 -28t70.5 -42.5t50 -59t19 -78v-107h-181v57q0 28 -19.5 48t-48 33t-62.5 19.5t-62 6.5q-76 0 -141 -27t-112.5 -76t-74.5 -117.5t-27 -150.5q0 -88 30 -156.5t80.5 -115.5t116.5 -71.5
t138 -24.5q73 0 132.5 22t101.5 49q49 32 88 72l86 -141q-46 -50 -108 -90q-54 -34 -132.5 -61.5t-181.5 -27.5q-122 0 -224 41t-175 114t-113.5 172t-40.5 216z" />
    <glyph glyph-name="d" unicode="d" horiz-adv-x="1239" 
d="M76 518q0 124 34.5 224t97 171t148.5 109.5t189 38.5q45 0 82.5 -7t68 -18t55 -25.5t43.5 -29.5q44 -35 70 -80h4q-1 9 -2 20q-1 10 -1.5 22.5t-0.5 27.5v260q0 45 -45 45h-84v170h197q69 0 100 -31t31 -100v-1100q0 -45 45 -45h84v-170h-191q-68 0 -97.5 29t-29.5 82
v20.5t1 17.5t2 15h-5q-28 -54 -75 -95q-20 -18 -46 -34.5t-59 -30t-72.5 -21.5t-87.5 -8q-105 0 -189.5 39.5t-143.5 111.5t-91 172t-32 220zM571 147q58 0 112 21t95.5 66.5t66.5 116t25 169.5q0 69 -18 135.5t-55 118.5t-92 83.5t-130 31.5q-60 0 -114 -25t-94.5 -72
t-64 -116.5t-23.5 -157.5q0 -84 21.5 -152.5t60 -117t92 -75t118.5 -26.5z" />
    <glyph glyph-name="e" unicode="e" horiz-adv-x="1130" 
d="M74 518q0 124 40 224t109.5 171t164.5 109.5t206 38.5q109 0 192.5 -38t139.5 -104t85 -154.5t29 -189.5q0 -10 -1 -23.5t-2 -26.5q-2 -15 -3 -31h-755q4 -83 34.5 -148t79 -109t111 -67t131.5 -23q67 0 122 18.5t96 41.5q47 26 85 61l86 -141q-47 -43 -108 -76
q-52 -29 -125.5 -52.5t-165.5 -23.5q-123 0 -224.5 41.5t-174 114.5t-112.5 172.5t-40 214.5zM836 639q-3 64 -23 113.5t-53 83t-76.5 50.5t-91.5 17q-57 0 -107.5 -17t-90.5 -50.5t-68 -83t-39 -113.5h549z" />
    <glyph glyph-name="f" unicode="f" horiz-adv-x="666" 
d="M174 877h-129v159h129v35q0 85 20 147t52.5 105t74 69t85 40t85 19t74.5 5q17 0 31 -1t24 -2q11 -2 21 -3v-170q-6 1 -14 2q-7 1 -16.5 1.5t-20.5 0.5q-29 0 -66.5 -7t-71 -29.5t-56.5 -65.5t-23 -115v-31h245v-159h-245v-877h-199v877z" />
    <glyph glyph-name="g" unicode="g" horiz-adv-x="1219" 
d="M76 543q0 111 30.5 206t88.5 164.5t142.5 108.5t192.5 39q48 0 88 -7t72.5 -18.5t58 -26t44.5 -29.5q45 -36 69 -81h4v33q0 46 26.5 75t88.5 29h193v-170h-82q-20 0 -32.5 -10.5t-12.5 -30.5v-782q0 -128 -45 -218t-118.5 -146.5t-167.5 -82.5t-192 -26q-94 0 -185.5 24
t-168.5 62l68 160q38 -20 83 -35q38 -14 89 -24.5t110 -10.5q67 0 127 16t104.5 50.5t70.5 89.5t26 133v69q0 12 0.5 24t1.5 21q1 11 2 21h-4q-47 -75 -121 -116.5t-188 -41.5q-108 0 -193.5 41t-145.5 112.5t-92 168.5t-32 209zM578 184q54 0 103.5 17.5t88 59t61.5 110
t23 170.5q0 101 -23.5 168t-63 107t-93 56.5t-113.5 16.5q-68 0 -120.5 -24t-88.5 -68t-54.5 -107.5t-18.5 -142.5q0 -81 20.5 -147.5t59 -114.5t94 -74.5t125.5 -26.5z" />
    <glyph glyph-name="h" unicode="h" horiz-adv-x="1274" 
d="M166 1231q0 45 -45 45h-84v170h196q70 0 101 -30.5t31 -96.5v-404q0 -19 -1 -34.5t-2 -26.5q-1 -13 -2 -25h5q17 38 50 79t81.5 75t112 56t141.5 22q183 0 268.5 -99t85.5 -298v-449q0 -45 45 -45h84v-170h-195q-69 0 -100 31t-31 100v487q0 55 -7.5 102.5t-28.5 82.5
t-59.5 55.5t-100.5 20.5q-59 0 -111.5 -19t-95.5 -53t-74 -81t-47 -103q-11 -31 -14.5 -65.5t-3.5 -72.5v-485h-199v1231z" />
    <glyph glyph-name="i" unicode="i" horiz-adv-x="563" 
d="M188 1446h179v-207h-179v207zM184 821q0 45 -45 45h-84v170h195q69 0 100 -31t31 -100v-690q0 -45 45 -45h84v-170h-195q-69 0 -100 31t-31 100v690z" />
    <glyph glyph-name="j" unicode="j" horiz-adv-x="586" 
d="M229 1446h181v-207h-181v207zM-41 -248q5 -1 12 -1q6 -1 14 -1h19q28 0 66.5 7t72.5 30.5t58 68.5t24 121v844q0 45 -45 45h-84v170h197q69 0 100 -31t31 -100v-940q0 -87 -20.5 -149t-53.5 -105t-75.5 -69t-86.5 -40.5t-86 -19t-75 -4.5q-16 0 -28 0.5t-21 1.5
q-11 1 -19 2v170z" />
    <glyph glyph-name="k" unicode="k" horiz-adv-x="1075" 
d="M166 1231q0 45 -45 45h-84v170h196q70 0 101 -25t31 -94v-672h92q28 0 58 9.5t50 35.5l240 336h227l-280 -385q-18 -24 -32 -39t-25 -24q-12 -11 -21 -15v-4q11 -4 22 -14q10 -8 22 -23.5t25 -39.5l154 -281q12 -25 31 -33t57 -8h64v-170h-144q-36 0 -61 3.5t-44 14
t-34.5 29.5t-32.5 49l-188 348q-9 15 -21.5 23.5t-26.5 13t-28.5 5.5t-26.5 1h-77v-487h-199v1231z" />
    <glyph glyph-name="l" unicode="l" horiz-adv-x="549" 
d="M170 1231q0 45 -45 45h-84v170h197q69 0 100 -31t31 -100v-1100q0 -45 45 -45h84v-170h-197q-69 0 -100 31t-31 100v1100z" />
    <glyph glyph-name="m" unicode="m" horiz-adv-x="1919" 
d="M174 821q0 45 -45 45h-84v170h191q68 0 99.5 -28.5t31.5 -85.5v-39q0 -13 -0.5 -23.5t-0.5 -18.5q-1 -10 -1 -18h4q18 45 53 88t81.5 76.5t102.5 53.5t117 20q133 0 209 -59t102 -177h4q22 47 58.5 89.5t84.5 75t105.5 52t120.5 19.5q175 0 258.5 -99.5t83.5 -297.5v-449
q0 -45 45 -45h84v-170h-197q-69 0 -100 31t-31 100v490q0 54 -7 101.5t-26.5 83t-55 55.5t-93.5 20q-54 0 -101 -22t-84.5 -58.5t-64.5 -85t-41 -101.5q-8 -32 -12 -66.5t-4 -74.5v-473h-199v621q0 51 -5.5 98t-24 83t-54 57.5t-94.5 21.5q-57 0 -105 -22t-86 -60t-64.5 -88
t-41.5 -105q-8 -31 -11 -64.5t-3 -68.5v-473h-199v821z" />
    <glyph glyph-name="n" unicode="n" horiz-adv-x="1282" 
d="M174 821q0 45 -45 45h-84v170h191q131 0 131 -114v-39q0 -13 -1 -23.5t-2 -18.5q-1 -10 -2 -18h5q15 34 46 75.5t79 77.5t113.5 60.5t150.5 24.5q184 0 270 -99.5t86 -297.5v-449q0 -45 45 -45h84v-170h-197q-69 0 -100 31t-31 100v487q0 55 -7 102.5t-28 82.5t-59 55.5
t-100 20.5q-60 0 -113 -18.5t-95.5 -52.5t-73.5 -80.5t-46 -102.5q-11 -31 -14.5 -66t-3.5 -74v-485h-199v821z" />
    <glyph glyph-name="o" unicode="o" horiz-adv-x="1264" 
d="M74 520q0 118 43.5 217t119 171t177 112.5t217.5 40.5t218 -40.5t177.5 -112.5t119.5 -171t44 -217t-44 -218t-119.5 -172.5t-177.5 -113.5t-218 -41t-217.5 41t-177 113.5t-119 172.5t-43.5 218zM276 520q0 -81 28 -149.5t76.5 -118t113 -77.5t137.5 -28t138 28
t113.5 77.5t76.5 118t28 149.5t-28 148.5t-76.5 116.5t-113.5 76.5t-138 27.5t-137.5 -27.5t-113 -76.5t-76.5 -116.5t-28 -148.5z" />
    <glyph glyph-name="p" unicode="p" horiz-adv-x="1237" 
d="M174 821q0 45 -45 45h-84v170h186q70 0 98.5 -27.5t28.5 -76.5q0 -12 -0.5 -21.5t-0.5 -17.5q-1 -9 -1 -16h4q27 52 75 92q20 17 46.5 33.5t60 29.5t74 21t89.5 8q104 0 188.5 -39.5t144 -111t91.5 -171.5t32 -221q0 -124 -35.5 -224t-98.5 -171t-149 -109.5t-188 -38.5
q-86 0 -146 25.5t-98 57.5q-45 36 -73 83h-4q1 -11 2 -25q1 -12 1.5 -28.5t0.5 -36.5v-461h-199v1231zM367 514q0 -69 18.5 -135.5t55.5 -118t91.5 -83.5t126.5 -32q61 0 115.5 25t95.5 72.5t64.5 116.5t23.5 157q0 84 -21.5 152.5t-60 117t-92.5 75t-118 26.5
q-58 0 -112 -21t-95.5 -66.5t-66.5 -116t-25 -169.5z" />
    <glyph glyph-name="q" unicode="q" horiz-adv-x="1237" 
d="M78 518q0 124 34.5 224t96.5 171t148 109.5t188 38.5q46 0 85 -7.5t71 -20t57.5 -28.5t45.5 -32q47 -39 75 -88h4q-1 7 -1 15q-1 7 -1 16.5v21.5q0 46 30.5 72t96.5 26h186v-170h-84q-45 0 -45 -45v-1231h-199v469q0 20 0.5 37t1.5 29q1 14 2 25h-4q-28 -49 -75 -88
q-20 -17 -45.5 -32.5t-57.5 -27.5t-71 -19.5t-85 -7.5q-104 0 -188 39.5t-143 111.5t-91 172t-32 220zM573 147q58 0 111.5 21t94.5 66.5t66 116t25 169.5q0 69 -18 135.5t-54.5 118.5t-91.5 83.5t-128 31.5q-62 0 -116 -25t-95 -72t-64.5 -116.5t-23.5 -157.5
q0 -84 21.5 -152.5t60.5 -117t93 -75t119 -26.5z" />
    <glyph glyph-name="r" unicode="r" horiz-adv-x="793" 
d="M174 821q0 45 -45 45h-84v170h188q69 0 101.5 -29t32.5 -92v-65q0 -16 -1 -28.5t-2 -22.5q-1 -11 -2 -21h5q18 57 49 106.5t73 86t93.5 57.5t111.5 21q10 0 19.5 -1t17.5 -2q9 -1 17 -2v-196q-8 1 -18 3q-8 1 -19 2t-23 1q-48 0 -92.5 -16.5t-83 -48t-68 -76.5
t-47.5 -103q-14 -45 -19 -91.5t-5 -94.5v-424h-199v821z" />
    <glyph glyph-name="s" unicode="s" horiz-adv-x="930" 
d="M158 291q37 -44 85 -77q41 -29 98.5 -53t129.5 -24q36 0 68.5 8t57.5 24.5t39.5 41.5t14.5 59q0 35 -24.5 61.5t-64 48.5t-90.5 42t-103.5 42.5t-103.5 49.5t-90.5 63t-64 83t-24.5 110q0 75 30.5 129.5t83 90.5t122.5 53.5t149 17.5q31 0 68.5 -4t75 -13t73 -24
t63 -37.5t44 -53t16.5 -69.5v-98h-178v51q0 23 -15.5 39.5t-38.5 27.5t-50.5 16t-51.5 5q-88 0 -140 -30.5t-52 -92.5q0 -37 24.5 -63.5t64 -48.5t90.5 -41t103.5 -40.5t103.5 -47.5t90.5 -61.5t64 -83.5t24.5 -113q0 -69 -29 -125.5t-80 -96t-121 -61t-151 -21.5
q-52 0 -97 7.5t-84 20.5t-71.5 29.5t-58.5 33.5q-61 40 -103 92z" />
    <glyph glyph-name="t" unicode="t" horiz-adv-x="721" 
d="M182 877h-135v159h139v285h195v-285h248v-159h-248v-476q0 -77 23.5 -123t57.5 -70.5t71.5 -32t66.5 -7.5q11 0 19.5 0.5t14.5 1.5q7 1 13 2v-176q-7 -1 -18 -2q-9 -1 -22 -1.5t-29 -0.5q-33 0 -75 4.5t-86 19t-86.5 40.5t-75.5 69t-53 105.5t-20 148.5v498z" />
    <glyph glyph-name="u" unicode="u" horiz-adv-x="1272" 
d="M170 821q0 45 -45 45h-84v170h195q71 0 102 -30.5t31 -96.5v-491q0 -54 7 -101t27.5 -82t58 -55t99.5 -20q80 0 142.5 32.5t106 86.5t66.5 124.5t23 147.5v485h199v-821q0 -45 45 -45h84v-170h-191q-66 0 -98.5 29.5t-32.5 85.5v39v22.5t1 18.5q0 10 1 18h-4
q-16 -38 -49 -80t-81 -77t-111 -58t-140 -23q-175 0 -263.5 96t-88.5 302v448z" />
    <glyph glyph-name="v" unicode="v" horiz-adv-x="1090" 
d="M111 825q-10 23 -24.5 32t-39.5 9h-20v170h102q34 0 59 -4.5t43 -16.5t31 -32t25 -51l223 -596q8 -22 14.5 -45.5t11.5 -43.5q6 -24 11 -46h4q5 22 11 46q5 20 11.5 43.5t14.5 45.5l221 596q12 31 25.5 51t31.5 32t42.5 16.5t58.5 4.5h96v-170h-21q-26 0 -42 -9t-25 -32
l-316 -825h-229z" />
    <glyph glyph-name="w" unicode="w" horiz-adv-x="1708" 
d="M113 825q-8 25 -23.5 33t-40.5 8h-29v170h125q35 0 59.5 -5t42 -17t30 -33.5t22.5 -54.5l184 -617q6 -20 11 -39.5t8 -35.5q4 -18 6 -35h4q4 17 8 35q4 16 9 35.5t12 39.5l223 723h182l225 -723q6 -20 11 -39.5t9 -35.5q4 -18 7 -35h4q2 17 6 35q3 16 7.5 35.5t11.5 39.5
l182 617q10 33 23 54.5t31 33.5t42.5 17t59.5 5h123v-170h-29q-25 0 -40.5 -8t-23.5 -33l-272 -825h-223l-215 666q-7 20 -12 40l-9 36l-8 36h-4l-8 -36q-4 -16 -9.5 -36t-11.5 -40l-213 -666h-225z" />
    <glyph glyph-name="x" unicode="x" horiz-adv-x="1012" 
d="M381 532l-199 295q-17 25 -36.5 32t-51.5 7h-57v170h127q36 0 61 -4t44.5 -15.5t36.5 -32t38 -52.5l127 -201q5 -10 11 -21t11 -21q5 -11 11 -23h4q5 12 11 23q5 10 11 21t13 21l125 201q20 33 37 53.5t37 31.5t45 15t61 4h129v-170h-59q-31 0 -52 -7t-37 -30l-198 -297
l350 -532h-223l-219 338q-6 9 -11 18.5t-10 17.5q-5 10 -10 19h-4q-6 -9 -11 -19q-9 -17 -22 -36l-215 -338h-225z" />
    <glyph glyph-name="y" unicode="y" horiz-adv-x="1118" 
d="M92 -184q0 -1 11.5 -12.5t31.5 -25t48 -25t61 -11.5q60 0 106.5 40t75.5 109l47 113l-354 821q-11 25 -26 33t-40 8h-24v170h116q31 0 53.5 -4.5t39.5 -16.5t30 -32t25 -51l235 -584q8 -20 14.5 -41.5t11.5 -40.5q6 -22 11 -43h4q5 21 10 43q5 19 11 40.5t14 41.5
l215 584q12 31 25 51t31 32t41 16.5t55 4.5h119v-170h-27q-25 0 -40 -8t-26 -33l-409 -1011q-48 -120 -136.5 -182t-197.5 -62q-58 0 -103 15.5t-77 35.5q-37 22 -64 51z" />
    <glyph glyph-name="z" unicode="z" horiz-adv-x="1034" 
d="M68 115l530 655q17 20 32.5 38t27.5 31q14 15 26 27v4q-10 -1 -25 -2q-13 -1 -31.5 -1.5t-43.5 -0.5h-283q-45 0 -45 -45v-69h-182v153q0 69 31 100t100 31h741v-114l-532 -658q-17 -20 -32 -36.5t-27 -29.5q-14 -15 -27 -28v-4q9 1 24 2q12 1 31 1.5t45 0.5h332
q21 0 33 11.5t12 33.5v70h180v-154q0 -69 -31 -100t-100 -31h-786v115z" />
    <glyph glyph-name="braceleft" unicode="{" horiz-adv-x="694" 
d="M233 354q0 39 -7.5 69.5t-20 53.5t-28 39.5t-31.5 27.5q-39 26 -87 34v176q48 8 87 34q16 11 31.5 27.5t28 40t20 54.5t7.5 71v172q0 81 18 139t46.5 97.5t64.5 63t73 36t71 16.5t59 4q11 0 19.5 -0.5t14.5 -0.5q7 -1 13 -1v-151h-28q-20 0 -49.5 -6t-58 -28t-48.5 -65
t-20 -116v-211q0 -38 -7 -69.5t-19 -57t-27 -45t-30 -34.5q-37 -35 -83 -54v-4q46 -17 83 -51q15 -15 30 -34.5t27 -45t19 -58t7 -71.5v-236q0 -74 20 -117t48.5 -64.5t58 -27.5t49.5 -6h28v-152q-6 -1 -13 -2q-6 -1 -14.5 -1.5t-19.5 -0.5q-25 0 -59 4t-71 16.5t-73 36.5
t-64.5 64t-46.5 98.5t-18 139.5v196z" />
    <glyph glyph-name="bar" unicode="|" horiz-adv-x="612" 
d="M219 1622h174v-1948h-174v1948z" />
    <glyph glyph-name="braceright" unicode="}" horiz-adv-x="694" 
d="M82 -45h29q19 0 49 6t58 27.5t48.5 64.5t20.5 117v236q0 39 7 71.5t18.5 58t26.5 45t31 34.5q36 34 83 51v4q-47 19 -83 54q-16 15 -31 34.5t-26.5 45t-18.5 57t-7 69.5v211q0 73 -20.5 116t-48.5 65t-58 28t-49 6h-29v151q6 0 13 1q6 0 14.5 0.5t19.5 0.5q24 0 58.5 -4
t71.5 -16.5t73 -36t64.5 -63t46.5 -97.5t18 -139v-172q0 -40 7.5 -71t19.5 -54.5t27.5 -40t32.5 -27.5q38 -26 87 -34v-176q-49 -8 -87 -34q-17 -11 -32.5 -27.5t-27.5 -39.5t-19.5 -53.5t-7.5 -69.5v-196q0 -82 -18 -140t-46.5 -98t-64.5 -64t-73 -36.5t-71.5 -16.5
t-58.5 -4q-11 0 -19.5 0.5t-14.5 1.5q-7 1 -13 2v152z" />
    <glyph glyph-name="asciitilde" unicode="~" 
d="M127 418q0 89 20 154t57 108t90 63.5t120 20.5q54 0 93 -15t69.5 -37t55.5 -48.5t50.5 -48.5t55 -37t67.5 -15q40 0 66.5 18t42.5 46t22 62.5t6 66.5h162q0 -90 -20 -155.5t-56.5 -107.5t-89.5 -62.5t-119 -20.5q-54 0 -93 14.5t-69.5 36.5t-56 48t-51 48t-55 36.5
t-68.5 14.5q-40 0 -66.5 -18t-42 -45.5t-22 -61.5t-6.5 -65h-162z" />
    <glyph glyph-name="exclamdown" unicode="&#xa1;" horiz-adv-x="643" 
d="M219 1036h203v-198h-203v198zM233 639h179l12 -1049h-205z" />
    <glyph glyph-name="cent" unicode="&#xa2;" horiz-adv-x="1157" 
d="M530 150q-98 13 -175.5 63t-131 126.5t-82 174.5t-28.5 209t28.5 210t82 175.5t131 126t175.5 63.5v226h150v-226q133 -20 226.5 -104.5t144.5 -212.5l-181 -70q-18 43 -42.5 80t-56.5 64.5t-71.5 43t-87.5 15.5q-71 0 -126.5 -30t-93.5 -82.5t-57.5 -124t-19.5 -154.5
q0 -85 19 -156.5t56.5 -123t93 -80.5t128.5 -29q48 0 87.5 15.5t71.5 42.5t56.5 64t42.5 81l181 -72q-23 -57 -58 -110.5t-81 -96.5t-104 -72t-128 -36v-228h-150v228z" />
    <glyph glyph-name="sterling" unicode="&#xa3;" horiz-adv-x="1196" 
d="M102 176h125v477h-90v144h90v278q0 85 33 157.5t92.5 125.5t141 82.5t178.5 29.5q78 0 141 -20.5t108 -45.5q53 -29 93 -65l-117 -141q-30 25 -65 44q-30 17 -70.5 30.5t-87.5 13.5q-57 0 -102 -17t-76 -47t-47.5 -70t-16.5 -85v-270h377v-144h-377v-477h442q22 0 34 12
t12 33v92h188v-182q0 -69 -31 -100t-102 -31h-873v176z" />
    <glyph glyph-name="currency" unicode="&#xa4;" horiz-adv-x="506" 
d="M253 222q57 0 88 40.5t31 102.5q0 30 -8 56.5t-23 46t-37.5 30.5t-50.5 11q-29 0 -51 -11t-37.5 -30.5t-23.5 -46t-8 -56.5q0 -31 8 -57t23.5 -45t37.5 -30t51 -11zM19 168l69 71q-38 55 -38 126t38 124l-69 71l45 43l67 -69q24 18 54.5 29t67.5 11q36 0 67 -11t55 -29
l67 69l45 -43l-69 -71q37 -54 37 -124q0 -35 -10 -67t-28 -58l70 -72l-45 -43l-68 69q-49 -37 -121 -37t-121 37l-68 -69z" />
    <glyph glyph-name="yen" unicode="&#xa5;" horiz-adv-x="1257" 
d="M197 547h329v84l-57 90h-276v129h192v4l-229 371q-19 29 -40 37t-53 8h-32v176h90q37 0 64.5 -4t50 -16t42.5 -33.5t41 -57.5l220 -364q17 -30 33.5 -58.5t28.5 -51.5q14 -26 26 -50h4q12 24 26 50q12 23 28 51.5t34 58.5l217 364q21 36 41.5 58t43.5 34t51 15.5t65 3.5
h90v-176h-35q-32 0 -53 -8t-39 -37l-228 -371v-4h187v-129h-273l-55 -90v-84h328v-129h-328v-418h-205v418h-329v129z" />
    <glyph glyph-name="section" unicode="&#xa7;" horiz-adv-x="940" 
d="M168 1026q-6 23 -9 47t-3 47q0 75 26.5 139t76.5 111t121.5 73.5t162.5 26.5q66 0 119 -16t91 -36q44 -23 78 -52l-94 -131q-25 19 -55 35q-26 13 -61.5 24t-77.5 11q-46 0 -86 -13t-69.5 -38.5t-46.5 -64.5t-17 -91q0 -36 12 -82l139 -789h-164zM215 115q25 -21 56 -38
q26 -14 62.5 -26t80.5 -12q45 0 85 13.5t69 40.5t46 67t17 94q0 41 -13 92l-135 770h162l143 -799q11 -50 11 -92q0 -76 -26.5 -140.5t-76.5 -111.5t-121 -73.5t-161 -26.5q-67 0 -120 16t-91 36q-44 23 -78 52z" />
    <glyph glyph-name="dieresis" unicode="&#xa8;" horiz-adv-x="1026" 
d="M629 1806h149v-207h-149v207zM291 1806h151v-207h-151v207z" />
    <glyph glyph-name="copyright" unicode="&#xa9;" horiz-adv-x="1612" 
d="M76 723q0 104 26 200t73 179t113 150.5t147 116t174 75t194 26.5q153 0 286.5 -58t232.5 -159.5t156.5 -237.5t57.5 -292q0 -104 -26 -200t-73.5 -179t-114.5 -151t-148.5 -116.5t-175 -75t-195.5 -26.5q-101 0 -194 26.5t-174 75t-147 116.5t-113 151t-73 179t-26 200z
M225 723q0 -128 44.5 -239t122.5 -193t183.5 -129t227.5 -47q124 0 230.5 47t185 129t123 193t44.5 239t-44.5 239t-123 193t-185 129t-230.5 47q-122 0 -227.5 -47t-183.5 -129t-122.5 -193t-44.5 -239zM414 721q0 81 28 155t80.5 130.5t127 90t167.5 33.5q44 0 82 -9
t69.5 -23t57.5 -32t46 -37q48 -45 79 -101l-125 -68q-22 36 -52 64q-26 24 -63.5 44.5t-87.5 20.5q-60 0 -107.5 -22t-80 -59t-49.5 -85.5t-17 -101.5q0 -55 16.5 -103.5t48.5 -85t79.5 -58t109.5 -21.5q51 0 88.5 20t63.5 44q30 28 51 65l125 -68q-31 -57 -79 -102
q-20 -19 -46 -37t-57.5 -32.5t-69.5 -23t-82 -8.5q-93 0 -167.5 33.5t-127 90t-80.5 131t-28 155.5z" />
    <glyph glyph-name="ordfeminine" unicode="&#xaa;" horiz-adv-x="850" 
d="M336 784q-43 0 -83.5 13t-71.5 38.5t-49.5 63.5t-18.5 88q0 51 20 87t52 60t72.5 38.5t82.5 22t81 9.5t68 2h29q-2 39 -9 64.5t-22 41.5t-38 22.5t-56 6.5q-8 0 -22.5 -1t-28.5 -4t-24.5 -10t-10.5 -19v-39h-143v82q0 25 12.5 43.5t33 31t46 21t51.5 13t49 6t39 1.5
q81 0 133 -20t83 -55t43 -82t12 -101v-258q0 -22 20 -22h57v-131h-118q-39 0 -64.5 16t-30.5 59l-2 21h-4q-17 -31 -43 -55q-23 -20 -58.5 -37t-86.5 -17zM367 905q35 0 62.5 16.5t46.5 43.5t29.5 62.5t12.5 74.5h-20q-31 0 -71.5 -2.5t-76.5 -13.5t-61 -32.5t-25 -60.5
q0 -17 6 -33t19 -28t32.5 -19.5t45.5 -7.5zM111 659h639v-116h-639v116z" />
    <glyph glyph-name="guillemotleft" unicode="&#xab;" horiz-adv-x="1161" 
d="M834 999h198l-336 -421l336 -420h-198l-336 420zM86 578l336 421h199l-336 -421l336 -420h-199z" />
    <glyph glyph-name="logicalnot" unicode="&#xac;" 
d="M139 856h977v-547h-166v387h-811v160z" />
    <glyph glyph-name="registered" unicode="&#xae;" horiz-adv-x="1612" 
d="M76 723q0 104 26 200t73 179t113 150.5t147 116t174 75t194 26.5q153 0 286.5 -58t232.5 -159.5t156.5 -237.5t57.5 -292q0 -104 -26 -200t-73.5 -179t-114.5 -151t-148.5 -116.5t-175 -75t-195.5 -26.5q-101 0 -194 26.5t-174 75t-147 116.5t-113 151t-73 179t-26 200z
M225 723q0 -128 44.5 -239t122.5 -193t183.5 -129t227.5 -47q124 0 230.5 47t185 129t123 193t44.5 239t-44.5 239t-123 193t-185 129t-230.5 47q-122 0 -227.5 -47t-183.5 -129t-122.5 -193t-44.5 -239zM553 1001h-70v111h367q54 0 99 -16.5t77.5 -47.5t50 -74t17.5 -97
q0 -45 -13 -80t-34 -61t-46 -42t-49 -22v-4q7 -2 15 -7q6 -5 13.5 -13t14.5 -21l80 -154q11 -18 24 -22.5t25 -4.5h23v-106h-78q-21 0 -37.5 1.5t-29.5 7.5t-23.5 17.5t-20.5 30.5l-106 203q-14 26 -30.5 32.5t-39.5 6.5h-84v-299h-145v661zM821 745q57 0 91 35t34 97
q0 60 -34 92t-91 32h-123v-256h123z" />
    <glyph glyph-name="macron" unicode="&#xaf;" horiz-adv-x="950" 
d="M221 1745h520v-139h-520v139z" />
    <glyph glyph-name="macron" unicode="&#x2c9;" horiz-adv-x="950" 
d="M221 1745h520v-139h-520v139z" />
    <glyph glyph-name="degree" unicode="&#xb0;" horiz-adv-x="813" 
d="M406 864q-65 0 -121.5 23.5t-98.5 65t-66 96.5t-24 118q0 62 24 117t66 96.5t98.5 65.5t121.5 24q64 0 121 -24t99 -65.5t66.5 -96.5t24.5 -117q0 -63 -24.5 -118t-66.5 -96.5t-99 -65t-121 -23.5zM406 1016q32 0 59.5 12t48 32t32 47.5t11.5 59.5q0 31 -11.5 59t-32 49
t-48 33.5t-59.5 12.5q-33 0 -60.5 -12.5t-48 -33.5t-32 -49t-11.5 -59q0 -32 11.5 -59.5t32 -47.5t48 -32t60.5 -12z" />
    <glyph glyph-name="plusminus" unicode="&#xb1;" 
d="M86 664h459v503h168v-503h456v-160h-456v-504h-168v504h-459v160zM1137 -195v-159h-1018v159h1018z" />
    <glyph glyph-name="uni00B2" unicode="&#xb2;" horiz-adv-x="866" 
d="M203 545q-27 0 -46 5t-30.5 18.5t-17 37t-5.5 60.5q0 66 23 115.5t59 87t81.5 66.5t90.5 54q37 21 71 42t60.5 45.5t42 54t15.5 67.5q0 53 -36 87t-99 34q-53 0 -86 -22t-33 -50v-49h-146v90q0 47 28 80.5t69 54.5t87.5 31t82.5 10q64 0 117.5 -19t92 -54t60 -84
t21.5 -109q0 -66 -24.5 -115t-63 -86.5t-86 -66t-93.5 -53.5q-34 -20 -65.5 -39.5t-55.5 -41t-38.5 -46.5t-14.5 -56q0 -8 5.5 -10t13.5 -2h305q12 0 12 14v68h143v-125q0 -50 -22 -72t-72 -22h-446z" />
    <glyph glyph-name="uni00B3" unicode="&#xb3;" horiz-adv-x="866" 
d="M426 528q-73 0 -131.5 25.5t-100.5 56.5q-49 36 -88 82l109 101q26 -34 59 -60q28 -23 66.5 -41t85.5 -18q31 0 59.5 11t50 30.5t34 46.5t12.5 59t-13 57.5t-35.5 43t-53 27t-64.5 9.5h-70l-24 91l172 217q7 9 14.5 17t14.5 15q8 8 16 15v4l-22 -2q-10 -1 -22.5 -1.5
t-25.5 -0.5h-156q-18 0 -18 -21v-53h-145v109q0 55 20.5 76.5t77.5 21.5h475v-105l-213 -260q45 -6 86 -27.5t73 -55.5t51 -79.5t19 -99.5q0 -65 -25.5 -119t-68.5 -92t-100 -59t-119 -21z" />
    <glyph glyph-name="acute" unicode="&#xb4;" horiz-adv-x="795" 
d="M393 1806h201l-195 -260h-155z" />
    <glyph glyph-name="mu" unicode="&#xb5;" horiz-adv-x="1272" 
d="M41 1036h195q71 0 102 -30.5t31 -96.5v-491q0 -54 7 -101t27.5 -82t58 -55t99.5 -20q80 0 142.5 32.5t106 86.5t66.5 124.5t23 147.5v485h199v-821q0 -45 45 -45h84v-170h-191q-68 0 -99.5 29.5t-31.5 85.5v39v22.5t1 18.5q0 10 1 18h-4q-31 -67 -84 -119
q-23 -23 -52 -44t-66 -38t-81.5 -27t-97.5 -10q-52 0 -87 10t-57 22q-26 14 -42 32h-4q3 -30 7 -58q2 -25 4.5 -52t2.5 -50v-289h-176v1231q0 45 -45 45h-84v170z" />
    <glyph glyph-name="mu" unicode="&#x3bc;" horiz-adv-x="1272" 
d="M41 1036h195q71 0 102 -30.5t31 -96.5v-491q0 -54 7 -101t27.5 -82t58 -55t99.5 -20q80 0 142.5 32.5t106 86.5t66.5 124.5t23 147.5v485h199v-821q0 -45 45 -45h84v-170h-191q-68 0 -99.5 29.5t-31.5 85.5v39v22.5t1 18.5q0 10 1 18h-4q-31 -67 -84 -119
q-23 -23 -52 -44t-66 -38t-81.5 -27t-97.5 -10q-52 0 -87 10t-57 22q-26 14 -42 32h-4q3 -30 7 -58q2 -25 4.5 -52t2.5 -50v-289h-176v1231q0 45 -45 45h-84v170z" />
    <glyph glyph-name="paragraph" unicode="&#xb6;" horiz-adv-x="1227" 
d="M569 494q-99 0 -187 36.5t-154.5 101t-105 151.5t-38.5 188q0 100 38.5 187t104 151t153.5 100.5t187 36.5h557v-176h-401v-1372h-154v596zM850 1153h151v-1255h-151v1255z" />
    <glyph glyph-name="periodcentered" unicode="&#xb7;" horiz-adv-x="492" 
d="M143 700h203v-211h-203v211z" />
    <glyph glyph-name="periodcentered" unicode="&#x2219;" horiz-adv-x="492" 
d="M143 700h203v-211h-203v211z" />
    <glyph glyph-name="cedilla" unicode="&#xb8;" horiz-adv-x="852" 
d="M428 27v-17l-22 -112q30 -4 56.5 -15.5t46 -30.5t31 -45t11.5 -59q0 -48 -17.5 -80.5t-47 -53t-67 -29.5t-77.5 -9q-24 0 -44.5 2t-35.5 5q-18 3 -33 7v119q12 -4 26 -7q12 -3 28 -5t34 -2q39 0 68 14t29 49q0 32 -30.5 48t-78.5 16q-6 0 -12.5 -0.5t-11.5 -0.5
q-6 -1 -11 -1l58 227z" />
    <glyph glyph-name="uni00B9" unicode="&#xb9;" horiz-adv-x="866" 
d="M156 682h190v494v29t1 21q0 10 1 17h-4q-2 -6 -6 -12q-7 -13 -19 -23l-81 -78l-95 101l224 215h135v-764h188v-137h-534v137z" />
    <glyph glyph-name="ordmasculine" unicode="&#xba;" horiz-adv-x="934" 
d="M467 786q-73 0 -137 25.5t-111 71.5t-74.5 109t-27.5 138q0 73 27 135t74.5 107t111 70.5t135.5 25.5q73 0 137 -25.5t112 -70.5t75.5 -107t27.5 -135q0 -75 -27.5 -138t-75.5 -109t-111.5 -71.5t-135.5 -25.5zM467 918q42 0 78.5 15.5t63.5 44t43 67t16 85.5
q0 45 -16 83t-43 65.5t-63.5 43t-78.5 15.5t-79 -15.5t-64.5 -43t-43.5 -65.5t-16 -83q0 -47 16 -85.5t43.5 -67t64.5 -44t79 -15.5zM150 659h638v-116h-638v116z" />
    <glyph glyph-name="guillemotright" unicode="&#xbb;" horiz-adv-x="1161" 
d="M877 578l-336 421h198l336 -421l-336 -420h-198zM463 578l-336 421h199l336 -421l-336 -420h-199z" />
    <glyph glyph-name="onequarter" unicode="&#xbc;" horiz-adv-x="1876" 
d="M1169 1446h164l-585 -1446h-166zM160 682h190v494v29t1 21q0 10 1 17h-4q-3 -6 -7 -12q-3 -5 -7.5 -11.5t-9.5 -11.5l-82 -78l-95 101l222 215h137v-764h182v-137h-528v137zM1059 326l391 577h178v-534h135v-138h-135v-231h-155v231h-414v95zM1227 367q8 0 15 1
q6 0 13 0.5t13 0.5h207v280v27t1 24q0 12 1 23h-4l-9 -18q-5 -8 -10 -17.5t-12 -19.5l-187 -265q-5 -6 -10 -11.5t-9 -10.5q-5 -5 -9 -10v-4z" />
    <glyph glyph-name="onehalf" unicode="&#xbd;" horiz-adv-x="1876" 
d="M1147 1446h164l-588 -1446h-164zM160 682h190v494v29t1 21q0 10 1 17h-4q-3 -6 -7 -12q-3 -5 -7.5 -11.5t-9.5 -11.5l-82 -78l-95 101l222 215h137v-764h182v-137h-528v137zM1112 121q0 66 22.5 115.5t59 87.5t82 67t90.5 55q36 20 70 41t60 45.5t42 53.5t16 67
q0 54 -37 88.5t-100 34.5q-25 0 -46.5 -6t-37 -16t-24.5 -23t-9 -26v-50h-145v88q0 47 28 80.5t69 55t87 31.5t82 10q64 0 117.5 -19t92 -54t60 -84t21.5 -108q0 -67 -24.5 -116.5t-63 -87t-86 -66t-92.5 -53.5q-35 -19 -66.5 -38.5t-56 -41.5t-39 -47t-14.5 -55
q0 -8 5.5 -10.5t14.5 -2.5h303q13 0 13 15v69h145v-125q0 -51 -22.5 -73.5t-73.5 -22.5h-447q-27 0 -45 5.5t-29.5 19t-16.5 37t-5 59.5z" />
    <glyph glyph-name="threequarters" unicode="&#xbe;" horiz-adv-x="1876" 
d="M1165 1446h164l-586 -1446h-165zM442 528q-72 0 -131 25.5t-101 56.5q-49 36 -87 82l106 101q27 -34 60 -60q29 -23 67.5 -41t85.5 -18q31 0 59.5 11t50 30.5t34 46.5t12.5 59t-13 57.5t-35.5 43t-53 27t-64.5 9.5h-72l-24 91l174 217q7 9 14 17t14 15q7 8 15 15v4
q-10 -1 -21 -2q-10 -1 -22 -1.5t-25 -0.5h-155q-11 0 -15 -5t-4 -16v-53h-145v109q0 27 4.5 46t15 30.5t29 16.5t47.5 5h477v-105l-215 -260q45 -6 87 -27.5t74.5 -55.5t51.5 -79.5t19 -99.5q0 -65 -25.5 -119t-69 -92t-100.5 -59t-119 -21zM1059 326l391 577h178v-534h135
v-138h-135v-231h-155v231h-414v95zM1227 367q8 0 15 1q6 0 13 0.5t13 0.5h207v280v27t1 24q0 12 1 23h-4l-9 -18q-5 -8 -10 -17.5t-12 -19.5l-187 -265q-5 -6 -10 -11.5t-9 -10.5q-5 -5 -9 -10v-4z" />
    <glyph glyph-name="questiondown" unicode="&#xbf;" horiz-adv-x="928" 
d="M424 1036h203v-198h-203v198zM66 -57q0 84 27 146t67 110t87 87.5t87 80.5t67 87.5t27 108.5v76h193v-88q0 -78 -25.5 -135.5t-64.5 -104t-83.5 -85.5t-83.5 -78.5t-64.5 -85t-25.5 -103.5q0 -43 17.5 -80.5t49 -65t74 -43.5t93.5 -16q48 0 90.5 13.5t74.5 30.5
q37 19 68 44l109 -141q-40 -37 -94 -66q-46 -25 -112 -45t-150 -20q-87 0 -165 26t-136.5 75t-92.5 117.5t-34 154.5z" />
    <glyph glyph-name="Agrave" unicode="&#xc0;" horiz-adv-x="1362" 
d="M25 176h28q28 0 43.5 8.5t24.5 36.5l452 1225h215l453 -1225q9 -28 25.5 -36.5t42.5 -8.5h30v-176h-114q-39 0 -65.5 5.5t-45 19t-32 36.5t-25.5 58l-109 297h-532l-109 -297q-13 -35 -27 -58t-32.5 -36.5t-45 -19t-65.5 -5.5h-112v176zM897 588l-158 440q-10 29 -20 64
t-18 66q-10 36 -19 73h-4q-9 -37 -18 -73q-8 -31 -17.5 -66t-19.5 -64l-158 -440h432zM408 1806h201l149 -260h-155z" />
    <glyph glyph-name="Aacute" unicode="&#xc1;" horiz-adv-x="1362" 
d="M25 176h28q28 0 43.5 8.5t24.5 36.5l452 1225h215l453 -1225q9 -28 25.5 -36.5t42.5 -8.5h30v-176h-114q-39 0 -65.5 5.5t-45 19t-32 36.5t-25.5 58l-109 297h-532l-109 -297q-13 -35 -27 -58t-32.5 -36.5t-45 -19t-65.5 -5.5h-112v176zM897 588l-158 440q-10 29 -20 64
t-18 66q-10 36 -19 73h-4q-9 -37 -18 -73q-8 -31 -17.5 -66t-19.5 -64l-158 -440h432zM751 1806h201l-195 -260h-155z" />
    <glyph glyph-name="Acircumflex" unicode="&#xc2;" horiz-adv-x="1362" 
d="M25 176h28q28 0 43.5 8.5t24.5 36.5l452 1225h215l453 -1225q9 -28 25.5 -36.5t42.5 -8.5h30v-176h-114q-39 0 -65.5 5.5t-45 19t-32 36.5t-25.5 58l-109 297h-532l-109 -297q-13 -35 -27 -58t-32.5 -36.5t-45 -19t-65.5 -5.5h-112v176zM897 588l-158 440q-10 29 -20 64
t-18 66q-10 36 -19 73h-4q-9 -37 -18 -73q-8 -31 -17.5 -66t-19.5 -64l-158 -440h432zM590 1806h182l180 -260h-162l-106 164h-4l-109 -164h-160z" />
    <glyph glyph-name="Atilde" unicode="&#xc3;" horiz-adv-x="1362" 
d="M25 176h28q28 0 43.5 8.5t24.5 36.5l452 1225h215l453 -1225q9 -28 25.5 -36.5t42.5 -8.5h30v-176h-114q-39 0 -65.5 5.5t-45 19t-32 36.5t-25.5 58l-109 297h-532l-109 -297q-13 -35 -27 -58t-32.5 -36.5t-45 -19t-65.5 -5.5h-112v176zM897 588l-158 440q-10 29 -20 64
t-18 66q-10 36 -19 73h-4q-9 -37 -18 -73q-8 -31 -17.5 -66t-19.5 -64l-158 -440h432zM333 1548q0 260 211 260q53 0 88 -21.5t62.5 -48t53 -48t59.5 -21.5q23 0 38.5 12.5t25 32t13.5 43t4 45.5h136q0 -128 -53 -194t-158 -66q-35 0 -62 10.5t-48.5 25.5t-39.5 33.5
t-35.5 33.5t-36 25.5t-40.5 10.5q-23 0 -39 -12t-25.5 -31t-13.5 -43t-4 -47h-136z" />
    <glyph glyph-name="Adieresis" unicode="&#xc4;" horiz-adv-x="1362" 
d="M25 176h28q28 0 43.5 8.5t24.5 36.5l452 1225h215l453 -1225q9 -28 25.5 -36.5t42.5 -8.5h30v-176h-114q-39 0 -65.5 5.5t-45 19t-32 36.5t-25.5 58l-109 297h-532l-109 -297q-13 -35 -27 -58t-32.5 -36.5t-45 -19t-65.5 -5.5h-112v176zM897 588l-158 440q-10 29 -20 64
t-18 66q-10 36 -19 73h-4q-9 -37 -18 -73q-8 -31 -17.5 -66t-19.5 -64l-158 -440h432zM776 1806h149v-207h-149v207zM438 1806h151v-207h-151v207z" />
    <glyph glyph-name="Aring" unicode="&#xc5;" horiz-adv-x="1362" 
d="M25 176h28q28 0 43.5 8.5t24.5 36.5l452 1225h215l453 -1225q9 -28 25.5 -36.5t42.5 -8.5h30v-176h-114q-39 0 -65.5 5.5t-45 19t-32 36.5t-25.5 58l-109 297h-532l-109 -297q-13 -35 -27 -58t-32.5 -36.5t-45 -19t-65.5 -5.5h-112v176zM897 588l-158 440q-10 29 -20 64
t-18 66q-10 36 -19 73h-4q-9 -37 -18 -73q-8 -31 -17.5 -66t-19.5 -64l-158 -440h432zM682 1522q-33 0 -63 10.5t-53 30t-36.5 47.5t-13.5 63q0 36 13.5 64.5t36.5 48.5t53 30.5t63 10.5q32 0 62 -10.5t53 -30.5t37 -48.5t14 -64.5q0 -35 -14 -63t-37 -47.5t-53 -30
t-62 -10.5zM682 1606q31 0 50.5 19t19.5 48q0 32 -19.5 52t-50.5 20t-50.5 -20t-19.5 -52q0 -29 19.5 -48t50.5 -19z" />
    <glyph glyph-name="AE" unicode="&#xc6;" horiz-adv-x="1755" 
d="M25 176h22q28 0 43.5 8.5t26.5 36.5l485 1225h918q69 0 100 -31t31 -100v-182h-187v92q0 45 -45 45h-399v-453h493v-176h-493v-420q0 -26 13.5 -35.5t39.5 -9.5h402q21 0 33 12t12 33v92h188v-182q0 -69 -31 -100t-102 -31h-617q-38 0 -65.5 6t-45 21t-26 40.5t-8.5 63.5
v510h-326l-194 -522q-13 -35 -27 -58t-33 -36.5t-45.5 -19t-64.5 -5.5h-98v176zM813 817v453h-90l-168 -453h258z" />
    <glyph glyph-name="Ccedilla" unicode="&#xc7;" horiz-adv-x="1436" 
d="M70 735q0 157 55 291.5t152 233t230 154.5t288 56q48 0 107.5 -7t119.5 -22.5t117 -40t101 -59.5t70.5 -80.5t26.5 -103.5v-141h-188v82q0 45 -34.5 79.5t-86.5 57t-113.5 34t-115.5 11.5q-109 0 -203.5 -39.5t-164 -111t-109 -172t-39.5 -222.5q0 -79 17.5 -151.5
t50.5 -135.5t79.5 -114.5t103.5 -88.5t124 -57t141 -20q54 0 102.5 8.5t91 22t79 31t66.5 35.5q70 42 124 97l110 -145q-60 -65 -142 -117q-35 -22 -78.5 -43.5t-95 -39t-111 -29t-126.5 -13.5l-16 -77q63 -8 105 -46t42 -104q0 -48 -18 -80.5t-47 -53t-67 -29.5t-77 -9
q-25 0 -45.5 2t-35.5 5q-18 3 -33 7v119q12 -4 26 -7q12 -3 28 -5t34 -2q19 0 36.5 3t30.5 10.5t21 19.5t8 30q0 32 -29 48t-77 16q-8 0 -14.5 -0.5t-11.5 -0.5q-6 -1 -11 -1l41 160q-144 15 -262 79t-202 164.5t-129.5 231.5t-45.5 280z" />
    <glyph glyph-name="Egrave" unicode="&#xc8;" horiz-adv-x="1163" 
d="M211 1270h-133v176h850q69 0 100 -31t31 -100v-182h-187v92q0 45 -45 45h-411v-453h506v-176h-506v-420q0 -21 11.5 -33t33.5 -12h422q21 0 33 12t12 33v92h188v-182q0 -69 -31 -100t-100 -31h-643q-69 0 -100 31t-31 100v1139zM330 1806h201l149 -260h-155z" />
    <glyph glyph-name="Eacute" unicode="&#xc9;" horiz-adv-x="1163" 
d="M211 1270h-133v176h850q69 0 100 -31t31 -100v-182h-187v92q0 45 -45 45h-411v-453h506v-176h-506v-420q0 -21 11.5 -33t33.5 -12h422q21 0 33 12t12 33v92h188v-182q0 -69 -31 -100t-100 -31h-643q-69 0 -100 31t-31 100v1139zM674 1806h201l-195 -260h-155z" />
    <glyph glyph-name="Ecircumflex" unicode="&#xca;" horiz-adv-x="1163" 
d="M211 1270h-133v176h850q69 0 100 -31t31 -100v-182h-187v92q0 45 -45 45h-411v-453h506v-176h-506v-420q0 -21 11.5 -33t33.5 -12h422q21 0 33 12t12 33v92h188v-182q0 -69 -31 -100t-100 -31h-643q-69 0 -100 31t-31 100v1139zM515 1806h182l180 -260h-162l-106 164h-4
l-109 -164h-160z" />
    <glyph glyph-name="Edieresis" unicode="&#xcb;" horiz-adv-x="1163" 
d="M211 1270h-133v176h850q69 0 100 -31t31 -100v-182h-187v92q0 45 -45 45h-411v-453h506v-176h-506v-420q0 -21 11.5 -33t33.5 -12h422q21 0 33 12t12 33v92h188v-182q0 -69 -31 -100t-100 -31h-643q-69 0 -100 31t-31 100v1139zM701 1806h149v-207h-149v207zM363 1806
h151v-207h-151v207z" />
    <glyph glyph-name="Igrave" unicode="&#xcc;" horiz-adv-x="649" 
d="M86 176h141v1094h-141v176h477v-176h-141v-1094h141v-176h-477v176zM51 1806h201l149 -260h-155z" />
    <glyph glyph-name="Iacute" unicode="&#xcd;" horiz-adv-x="649" 
d="M86 176h141v1094h-141v176h477v-176h-141v-1094h141v-176h-477v176zM393 1806h201l-195 -260h-155z" />
    <glyph glyph-name="Icircumflex" unicode="&#xce;" horiz-adv-x="649" 
d="M86 176h141v1094h-141v176h477v-176h-141v-1094h141v-176h-477v176zM234 1806h182l180 -260h-162l-106 164h-4l-109 -164h-160z" />
    <glyph glyph-name="Idieresis" unicode="&#xcf;" horiz-adv-x="649" 
d="M86 176h141v1094h-141v176h477v-176h-141v-1094h141v-176h-477v176zM420 1806h149v-207h-149v207zM82 1806h151v-207h-151v207z" />
    <glyph glyph-name="Eth" unicode="&#xd0;" horiz-adv-x="1464" 
d="M211 639h-100v168h100v463h-133v176h586q165 0 300 -48.5t230.5 -140.5t148 -226.5t52.5 -305.5q0 -172 -52.5 -307t-148 -228t-230.5 -141.5t-300 -48.5h-322q-69 0 -100 31t-31 100v508zM416 221q0 -21 11.5 -33t33.5 -12h188q121 0 219 35.5t168 105.5t108 172t38 236
q0 133 -38.5 234.5t-108 170.5t-168 104.5t-218.5 35.5h-233v-463h295v-168h-295v-418z" />
    <glyph glyph-name="Ntilde" unicode="&#xd1;" horiz-adv-x="1567" 
d="M78 176h88q22 0 33.5 12t11.5 33v1225h186l643 -916q20 -29 41.5 -63.5t39.5 -63.5q20 -34 40 -69h4q-4 34 -7 68q-3 29 -5 63t-2 65v785q0 69 31 100t102 31h205v-176h-88q-45 0 -45 -45v-1225h-185l-645 915q-20 29 -41 63.5t-38 64.5q-20 34 -39 69h-5q3 -35 6 -69
q2 -29 4.5 -63.5t2.5 -64.5v-784q0 -69 -31 -100t-100 -31h-207v176zM456 1548q0 260 211 260q53 0 88 -21.5t62.5 -48t53 -48t59.5 -21.5q23 0 38.5 12.5t25 32t13.5 43t4 45.5h136q0 -128 -53 -194t-158 -66q-35 0 -62 10.5t-48.5 25.5t-39.5 33.5t-35.5 33.5t-36 25.5
t-40.5 10.5q-23 0 -39 -12t-25.5 -31t-13.5 -43t-4 -47h-136z" />
    <glyph glyph-name="Ograve" unicode="&#xd2;" horiz-adv-x="1624" 
d="M70 733q0 104 26 199t73.5 177t114.5 148.5t149 114t178 73t200 25.5q157 0 292.5 -56.5t235.5 -156t157.5 -234t57.5 -290.5q0 -107 -26 -204.5t-73.5 -181.5t-115 -152.5t-150 -117.5t-178.5 -75.5t-200 -26.5q-105 0 -200.5 26.5t-177.5 75.5t-149 117.5t-114.5 152.5
t-73.5 181.5t-26 204.5zM283 733q0 -120 41.5 -223t113 -179t167.5 -119.5t206 -43.5t206.5 43.5t168.5 119.5t113.5 179t41.5 223q0 116 -41.5 216t-113.5 173.5t-168.5 115.5t-206.5 42t-206 -42t-167.5 -115.5t-113 -173.5t-41.5 -216zM530 1806h201l149 -260h-155z" />
    <glyph glyph-name="Oacute" unicode="&#xd3;" horiz-adv-x="1624" 
d="M70 733q0 104 26 199t73.5 177t114.5 148.5t149 114t178 73t200 25.5q157 0 292.5 -56.5t235.5 -156t157.5 -234t57.5 -290.5q0 -107 -26 -204.5t-73.5 -181.5t-115 -152.5t-150 -117.5t-178.5 -75.5t-200 -26.5q-105 0 -200.5 26.5t-177.5 75.5t-149 117.5t-114.5 152.5
t-73.5 181.5t-26 204.5zM283 733q0 -120 41.5 -223t113 -179t167.5 -119.5t206 -43.5t206.5 43.5t168.5 119.5t113.5 179t41.5 223q0 116 -41.5 216t-113.5 173.5t-168.5 115.5t-206.5 42t-206 -42t-167.5 -115.5t-113 -173.5t-41.5 -216zM876 1806h201l-195 -260h-155z" />
    <glyph glyph-name="Ocircumflex" unicode="&#xd4;" horiz-adv-x="1624" 
d="M70 733q0 104 26 199t73.5 177t114.5 148.5t149 114t178 73t200 25.5q157 0 292.5 -56.5t235.5 -156t157.5 -234t57.5 -290.5q0 -107 -26 -204.5t-73.5 -181.5t-115 -152.5t-150 -117.5t-178.5 -75.5t-200 -26.5q-105 0 -200.5 26.5t-177.5 75.5t-149 117.5t-114.5 152.5
t-73.5 181.5t-26 204.5zM283 733q0 -120 41.5 -223t113 -179t167.5 -119.5t206 -43.5t206.5 43.5t168.5 119.5t113.5 179t41.5 223q0 116 -41.5 216t-113.5 173.5t-168.5 115.5t-206.5 42t-206 -42t-167.5 -115.5t-113 -173.5t-41.5 -216zM715 1806h182l180 -260h-162
l-106 164h-4l-109 -164h-160z" />
    <glyph glyph-name="Otilde" unicode="&#xd5;" horiz-adv-x="1624" 
d="M70 733q0 104 26 199t73.5 177t114.5 148.5t149 114t178 73t200 25.5q157 0 292.5 -56.5t235.5 -156t157.5 -234t57.5 -290.5q0 -107 -26 -204.5t-73.5 -181.5t-115 -152.5t-150 -117.5t-178.5 -75.5t-200 -26.5q-105 0 -200.5 26.5t-177.5 75.5t-149 117.5t-114.5 152.5
t-73.5 181.5t-26 204.5zM283 733q0 -120 41.5 -223t113 -179t167.5 -119.5t206 -43.5t206.5 43.5t168.5 119.5t113.5 179t41.5 223q0 116 -41.5 216t-113.5 173.5t-168.5 115.5t-206.5 42t-206 -42t-167.5 -115.5t-113 -173.5t-41.5 -216zM458 1548q0 260 211 260
q53 0 88 -21.5t62.5 -48t53 -48t59.5 -21.5q23 0 38.5 12.5t25 32t13.5 43t4 45.5h136q0 -128 -53 -194t-158 -66q-35 0 -62 10.5t-48.5 25.5t-39.5 33.5t-35.5 33.5t-36 25.5t-40.5 10.5q-23 0 -39 -12t-25.5 -31t-13.5 -43t-4 -47h-136z" />
    <glyph glyph-name="Odieresis" unicode="&#xd6;" horiz-adv-x="1624" 
d="M70 733q0 104 26 199t73.5 177t114.5 148.5t149 114t178 73t200 25.5q157 0 292.5 -56.5t235.5 -156t157.5 -234t57.5 -290.5q0 -107 -26 -204.5t-73.5 -181.5t-115 -152.5t-150 -117.5t-178.5 -75.5t-200 -26.5q-105 0 -200.5 26.5t-177.5 75.5t-149 117.5t-114.5 152.5
t-73.5 181.5t-26 204.5zM283 733q0 -120 41.5 -223t113 -179t167.5 -119.5t206 -43.5t206.5 43.5t168.5 119.5t113.5 179t41.5 223q0 116 -41.5 216t-113.5 173.5t-168.5 115.5t-206.5 42t-206 -42t-167.5 -115.5t-113 -173.5t-41.5 -216zM901 1806h149v-207h-149v207z
M563 1806h151v-207h-151v207z" />
    <glyph glyph-name="multiply" unicode="&#xd7;" 
d="M518 584l-422 471l113 112l418 -467l420 467l112 -112l-424 -471l424 -471l-112 -113l-420 465l-418 -465l-113 113z" />
    <glyph glyph-name="Oslash" unicode="&#xd8;" horiz-adv-x="1628" 
d="M328 154q-59 52 -106.5 116t-80.5 137.5t-51 155.5t-18 170q0 156 57.5 290.5t157 234t235 156t291.5 56.5q108 0 204.5 -27t180.5 -77l96 133l101 -69l-95 -134q58 -51 105.5 -113t81 -133.5t51.5 -151.5t18 -165q0 -107 -26 -204.5t-73.5 -181.5t-115 -152.5
t-150 -117.5t-178.5 -75.5t-200 -26.5q-106 0 -203.5 28t-181.5 81l-96 -135l-103 69zM1083 1204q-60 35 -128 55.5t-142 20.5q-110 0 -206 -42t-167.5 -115.5t-113 -173.5t-41.5 -216q0 -125 44 -229.5t120 -181.5zM543 244q60 -37 128 -56.5t142 -19.5q110 0 206.5 43.5
t168.5 119.5t113.5 179t41.5 223q0 119 -45 220t-120 173z" />
    <glyph glyph-name="Ugrave" unicode="&#xd9;" horiz-adv-x="1491" 
d="M195 1225q0 23 -12 34t-33 11h-89v176h207q69 0 100 -31t31 -100v-801q0 -81 25 -145.5t70 -109t109 -68t142 -23.5t142 23.5t109.5 68.5t70.5 109.5t25 146.5v799q0 69 32 100t101 31h205v-176h-89q-21 0 -33 -11t-12 -34v-719q0 -119 -39.5 -216.5t-111.5 -167.5
t-173 -108.5t-224 -38.5q-125 0 -226.5 38.5t-174.5 108.5t-112.5 167.5t-39.5 216.5v719zM473 1806h201l149 -260h-155z" />
    <glyph glyph-name="Uacute" unicode="&#xda;" horiz-adv-x="1491" 
d="M195 1225q0 23 -12 34t-33 11h-89v176h207q69 0 100 -31t31 -100v-801q0 -81 25 -145.5t70 -109t109 -68t142 -23.5t142 23.5t109.5 68.5t70.5 109.5t25 146.5v799q0 69 32 100t101 31h205v-176h-89q-21 0 -33 -11t-12 -34v-719q0 -119 -39.5 -216.5t-111.5 -167.5
t-173 -108.5t-224 -38.5q-125 0 -226.5 38.5t-174.5 108.5t-112.5 167.5t-39.5 216.5v719zM817 1806h201l-195 -260h-155z" />
    <glyph glyph-name="Ucircumflex" unicode="&#xdb;" horiz-adv-x="1491" 
d="M195 1225q0 23 -12 34t-33 11h-89v176h207q69 0 100 -31t31 -100v-801q0 -81 25 -145.5t70 -109t109 -68t142 -23.5t142 23.5t109.5 68.5t70.5 109.5t25 146.5v799q0 69 32 100t101 31h205v-176h-89q-21 0 -33 -11t-12 -34v-719q0 -119 -39.5 -216.5t-111.5 -167.5
t-173 -108.5t-224 -38.5q-125 0 -226.5 38.5t-174.5 108.5t-112.5 167.5t-39.5 216.5v719zM656 1806h182l180 -260h-162l-106 164h-4l-109 -164h-160z" />
    <glyph glyph-name="Udieresis" unicode="&#xdc;" horiz-adv-x="1491" 
d="M195 1225q0 23 -12 34t-33 11h-89v176h207q69 0 100 -31t31 -100v-801q0 -81 25 -145.5t70 -109t109 -68t142 -23.5t142 23.5t109.5 68.5t70.5 109.5t25 146.5v799q0 69 32 100t101 31h205v-176h-89q-21 0 -33 -11t-12 -34v-719q0 -119 -39.5 -216.5t-111.5 -167.5
t-173 -108.5t-224 -38.5q-125 0 -226.5 38.5t-174.5 108.5t-112.5 167.5t-39.5 216.5v719zM842 1806h149v-207h-149v207zM504 1806h151v-207h-151v207z" />
    <glyph glyph-name="Yacute" unicode="&#xdd;" horiz-adv-x="1235" 
d="M516 631l-366 588q-20 32 -38.5 41.5t-50.5 9.5h-41v176h95q37 0 64 -3.5t48.5 -15.5t41 -34t40.5 -58l219 -364q17 -30 33.5 -59t28.5 -52q14 -27 26 -51h5q11 24 25 51q12 23 28 52t35 59l217 364q21 36 40.5 58t41.5 34t49 15.5t63 3.5h94v-176h-38q-32 0 -51.5 -9.5
t-39.5 -41.5l-364 -588v-631h-205v631zM688 1806h201l-195 -260h-155z" />
    <glyph glyph-name="Thorn" unicode="&#xde;" horiz-adv-x="1221" 
d="M211 1225q0 45 -45 45h-88v176h207q69 0 100 -31t31 -100v-115h299q99 0 182 -32t143 -91t93.5 -142.5t33.5 -186.5t-33.5 -187.5t-93.5 -145t-143.5 -93.5t-183.5 -33h-297v-289h-205v1225zM682 465q64 0 114.5 19.5t86 56.5t54.5 89t19 118q0 65 -19 116.5t-54 87
t-85.5 54t-113.5 18.5h-268v-559h266z" />
    <glyph glyph-name="germandbls" unicode="&#xdf;" horiz-adv-x="1184" 
d="M39 170h78q21 0 33 11t12 34v870q0 94 37.5 166t99.5 121t141.5 73.5t163.5 24.5q85 0 156.5 -26t123 -70.5t80.5 -104.5t29 -128q0 -48 -15 -86t-38 -69t-49.5 -57.5t-49.5 -51.5t-38 -51t-15 -56q0 -34 27 -64.5t68 -61.5t88.5 -65t88.5 -76.5t68 -95t27 -120.5
q0 -78 -29.5 -136.5t-78 -97.5t-112 -58.5t-130.5 -19.5q-75 0 -132.5 15.5t-97.5 35.5q-47 23 -81 52l55 153q31 -24 68 -42q32 -16 73.5 -29t89.5 -13q34 0 65 8t55 26t38 46t14 68q0 43 -27 79t-68 69.5t-88 66.5t-88 70.5t-68 82t-27 101.5q0 41 15.5 75t38.5 63.5
t49.5 56.5t49.5 55t38.5 58t15.5 67q0 30 -12.5 58.5t-37 51t-61 36t-84.5 13.5q-45 0 -88 -14t-76.5 -42t-53.5 -70.5t-20 -100.5v-940q0 -69 -30.5 -100t-102.5 -31h-188v170z" />
    <glyph glyph-name="agrave" unicode="&#xe0;" horiz-adv-x="1114" 
d="M76 291q0 83 34 142t89 98.5t124 62t138 34t132 14.5t107 3h45v10q0 69 -13 116t-41 76.5t-71 42.5t-104 13q-18 0 -47 -3t-56.5 -11.5t-47 -24.5t-19.5 -41v-59h-186v102q0 42 19.5 73t51 53t71 35.5t79.5 21t76 10t61 2.5q126 0 208.5 -31t130.5 -85.5t67.5 -129
t19.5 -160.5v-440q0 -23 12 -34t33 -11h84v-170h-186q-69 0 -99 31.5t-30 87.5q0 13 0.5 24.5t1.5 19.5q1 10 2 17h-4q-27 -58 -72 -103q-20 -19 -45 -37.5t-57 -32.5t-71 -23t-85 -9q-67 0 -130 20.5t-112.5 60t-79.5 98.5t-30 137zM276 301q0 -32 12 -61.5t36.5 -53
t61 -37.5t85.5 -14q63 0 114 30t87.5 77.5t56 106t19.5 116.5v35h-52q-37 0 -82.5 -1.5t-92.5 -7.5t-91 -18.5t-78 -35t-55 -55.5t-21 -81zM268 1448h201l149 -260h-155z" />
    <glyph glyph-name="aacute" unicode="&#xe1;" horiz-adv-x="1114" 
d="M76 291q0 83 34 142t89 98.5t124 62t138 34t132 14.5t107 3h45v10q0 69 -13 116t-41 76.5t-71 42.5t-104 13q-18 0 -47 -3t-56.5 -11.5t-47 -24.5t-19.5 -41v-59h-186v102q0 42 19.5 73t51 53t71 35.5t79.5 21t76 10t61 2.5q126 0 208.5 -31t130.5 -85.5t67.5 -129
t19.5 -160.5v-440q0 -23 12 -34t33 -11h84v-170h-186q-69 0 -99 31.5t-30 87.5q0 13 0.5 24.5t1.5 19.5q1 10 2 17h-4q-27 -58 -72 -103q-20 -19 -45 -37.5t-57 -32.5t-71 -23t-85 -9q-67 0 -130 20.5t-112.5 60t-79.5 98.5t-30 137zM276 301q0 -32 12 -61.5t36.5 -53
t61 -37.5t85.5 -14q63 0 114 30t87.5 77.5t56 106t19.5 116.5v35h-52q-37 0 -82.5 -1.5t-92.5 -7.5t-91 -18.5t-78 -35t-55 -55.5t-21 -81zM612 1448h201l-195 -260h-155z" />
    <glyph glyph-name="acircumflex" unicode="&#xe2;" horiz-adv-x="1114" 
d="M76 291q0 83 34 142t89 98.5t124 62t138 34t132 14.5t107 3h45v10q0 69 -13 116t-41 76.5t-71 42.5t-104 13q-18 0 -47 -3t-56.5 -11.5t-47 -24.5t-19.5 -41v-59h-186v102q0 42 19.5 73t51 53t71 35.5t79.5 21t76 10t61 2.5q126 0 208.5 -31t130.5 -85.5t67.5 -129
t19.5 -160.5v-440q0 -23 12 -34t33 -11h84v-170h-186q-69 0 -99 31.5t-30 87.5q0 13 0.5 24.5t1.5 19.5q1 10 2 17h-4q-27 -58 -72 -103q-20 -19 -45 -37.5t-57 -32.5t-71 -23t-85 -9q-67 0 -130 20.5t-112.5 60t-79.5 98.5t-30 137zM276 301q0 -32 12 -61.5t36.5 -53
t61 -37.5t85.5 -14q63 0 114 30t87.5 77.5t56 106t19.5 116.5v35h-52q-37 0 -82.5 -1.5t-92.5 -7.5t-91 -18.5t-78 -35t-55 -55.5t-21 -81zM453 1448h182l180 -260h-162l-106 164h-4l-109 -164h-160z" />
    <glyph glyph-name="atilde" unicode="&#xe3;" horiz-adv-x="1114" 
d="M76 291q0 83 34 142t89 98.5t124 62t138 34t132 14.5t107 3h45v10q0 69 -13 116t-41 76.5t-71 42.5t-104 13q-18 0 -47 -3t-56.5 -11.5t-47 -24.5t-19.5 -41v-59h-186v102q0 42 19.5 73t51 53t71 35.5t79.5 21t76 10t61 2.5q126 0 208.5 -31t130.5 -85.5t67.5 -129
t19.5 -160.5v-440q0 -23 12 -34t33 -11h84v-170h-186q-69 0 -99 31.5t-30 87.5q0 13 0.5 24.5t1.5 19.5q1 10 2 17h-4q-27 -58 -72 -103q-20 -19 -45 -37.5t-57 -32.5t-71 -23t-85 -9q-67 0 -130 20.5t-112.5 60t-79.5 98.5t-30 137zM276 301q0 -32 12 -61.5t36.5 -53
t61 -37.5t85.5 -14q63 0 114 30t87.5 77.5t56 106t19.5 116.5v35h-52q-37 0 -82.5 -1.5t-92.5 -7.5t-91 -18.5t-78 -35t-55 -55.5t-21 -81zM196 1190q0 260 211 260q53 0 88 -21.5t62.5 -48t53 -48t59.5 -21.5q23 0 38.5 12.5t25 32t13.5 43t4 45.5h136q0 -128 -53 -194
t-158 -66q-35 0 -62 10.5t-48.5 25.5t-39.5 33.5t-35.5 33.5t-36 25.5t-40.5 10.5q-23 0 -39 -12t-25.5 -31t-13.5 -43t-4 -47h-136z" />
    <glyph glyph-name="adieresis" unicode="&#xe4;" horiz-adv-x="1114" 
d="M76 291q0 83 34 142t89 98.5t124 62t138 34t132 14.5t107 3h45v10q0 69 -13 116t-41 76.5t-71 42.5t-104 13q-18 0 -47 -3t-56.5 -11.5t-47 -24.5t-19.5 -41v-59h-186v102q0 42 19.5 73t51 53t71 35.5t79.5 21t76 10t61 2.5q126 0 208.5 -31t130.5 -85.5t67.5 -129
t19.5 -160.5v-440q0 -23 12 -34t33 -11h84v-170h-186q-69 0 -99 31.5t-30 87.5q0 13 0.5 24.5t1.5 19.5q1 10 2 17h-4q-27 -58 -72 -103q-20 -19 -45 -37.5t-57 -32.5t-71 -23t-85 -9q-67 0 -130 20.5t-112.5 60t-79.5 98.5t-30 137zM276 301q0 -32 12 -61.5t36.5 -53
t61 -37.5t85.5 -14q63 0 114 30t87.5 77.5t56 106t19.5 116.5v35h-52q-37 0 -82.5 -1.5t-92.5 -7.5t-91 -18.5t-78 -35t-55 -55.5t-21 -81zM639 1448h149v-207h-149v207zM301 1448h151v-207h-151v207z" />
    <glyph glyph-name="aring" unicode="&#xe5;" horiz-adv-x="1114" 
d="M76 291q0 83 34 142t89 98.5t124 62t138 34t132 14.5t107 3h45v10q0 69 -13 116t-41 76.5t-71 42.5t-104 13q-18 0 -47 -3t-56.5 -11.5t-47 -24.5t-19.5 -41v-59h-186v102q0 42 19.5 73t51 53t71 35.5t79.5 21t76 10t61 2.5q126 0 208.5 -31t130.5 -85.5t67.5 -129
t19.5 -160.5v-440q0 -23 12 -34t33 -11h84v-170h-186q-69 0 -99 31.5t-30 87.5q0 13 0.5 24.5t1.5 19.5q1 10 2 17h-4q-27 -58 -72 -103q-20 -19 -45 -37.5t-57 -32.5t-71 -23t-85 -9q-67 0 -130 20.5t-112.5 60t-79.5 98.5t-30 137zM276 301q0 -32 12 -61.5t36.5 -53
t61 -37.5t85.5 -14q63 0 114 30t87.5 77.5t56 106t19.5 116.5v35h-52q-37 0 -82.5 -1.5t-92.5 -7.5t-91 -18.5t-78 -35t-55 -55.5t-21 -81zM545 1164q-33 0 -63 10.5t-53 30t-36.5 47.5t-13.5 63q0 36 13.5 64.5t36.5 48.5t53 30.5t63 10.5q32 0 62 -10.5t53 -30.5t37 -48.5
t14 -64.5q0 -35 -14 -63t-37 -47.5t-53 -30t-62 -10.5zM545 1248q31 0 50.5 19t19.5 48q0 32 -19.5 52t-50.5 20t-50.5 -20t-19.5 -52q0 -29 19.5 -48t50.5 -19z" />
    <glyph glyph-name="ae" unicode="&#xe6;" horiz-adv-x="1778" 
d="M76 291q0 82 31 140t82 97t116 61t134 33t135.5 14t119.5 3h51v18q0 69 -14 116.5t-42 76t-71.5 41t-101.5 12.5q-19 0 -48 -3t-56 -11.5t-46.5 -24.5t-19.5 -41v-59h-186v102q0 56 34.5 93.5t87 60t116 32t120.5 9.5q77 0 134.5 -12.5t100 -36.5t71 -57.5t46.5 -75.5h4
q62 91 156 136.5t213 45.5q106 0 188 -37.5t138 -102.5t85 -151.5t29 -183.5q0 -16 -0.5 -31.5t-1.5 -29.5q-1 -16 -2 -31h-741q4 -86 32.5 -150.5t74.5 -108.5t106.5 -66t130.5 -22q67 0 122 18.5t96 41.5q47 26 85 61l86 -141q-46 -43 -107 -76q-52 -29 -125.5 -52.5
t-166.5 -23.5q-158 0 -271.5 69.5t-175.5 191.5h-4q-5 -14 -17 -38.5t-33 -53.5t-52 -59t-72.5 -54.5t-95.5 -40t-121 -15.5q-71 0 -135.5 21t-113 61.5t-77 99.5t-28.5 134zM1483 639q-2 64 -22.5 113.5t-54 83t-76.5 50.5t-91 17q-57 0 -106 -17.5t-87 -51t-63.5 -82.5
t-36.5 -113h537zM279 301q0 -32 12 -62t36 -53t60.5 -37t85.5 -14q64 0 115 30t86.5 78t54.5 107t19 117v27h-97q-39 0 -81.5 -2.5t-84 -9.5t-79 -20t-65.5 -34.5t-45 -52.5t-17 -74z" />
    <glyph glyph-name="ccedilla" unicode="&#xe7;" horiz-adv-x="1092" 
d="M74 518q0 114 40 213.5t113 172.5t176 115t228 42q31 0 71 -4.5t81.5 -15t81 -28t70.5 -42.5t50 -59t19 -78v-107h-181v57q0 28 -19.5 48t-48 33t-62.5 19.5t-62 6.5q-76 0 -141 -27t-112.5 -76t-74.5 -117.5t-27 -150.5q0 -88 30 -156.5t80.5 -115.5t116.5 -71.5
t138 -24.5q73 0 132.5 22t101.5 49q49 32 88 72l86 -141q-45 -50 -107 -89q-54 -34 -132 -61.5t-181 -28.5l-17 -77q63 -8 105.5 -46t42.5 -104q0 -48 -18 -80.5t-47.5 -53t-67 -29.5t-76.5 -9q-25 0 -46 2t-36 5q-18 3 -33 7v119q12 -4 26 -7q12 -3 28 -5t34 -2
q19 0 36.5 3t31 10.5t21.5 19.5t8 30q0 32 -29.5 48t-77.5 16q-7 0 -13.5 -0.5t-11.5 -0.5q-6 -1 -12 -1l41 166q-99 16 -181 62.5t-140.5 116t-90.5 159.5t-32 194z" />
    <glyph glyph-name="egrave" unicode="&#xe8;" horiz-adv-x="1130" 
d="M74 518q0 124 40 224t109.5 171t164.5 109.5t206 38.5q109 0 192.5 -38t139.5 -104t85 -154.5t29 -189.5q0 -10 -1 -23.5t-2 -26.5q-2 -15 -3 -31h-755q4 -83 34.5 -148t79 -109t111 -67t131.5 -23q67 0 122 18.5t96 41.5q47 26 85 61l86 -141q-47 -43 -108 -76
q-52 -29 -125.5 -52.5t-165.5 -23.5q-123 0 -224.5 41.5t-174 114.5t-112.5 172.5t-40 214.5zM836 639q-3 64 -23 113.5t-53 83t-76.5 50.5t-91.5 17q-57 0 -107.5 -17t-90.5 -50.5t-68 -83t-39 -113.5h549zM311 1448h201l149 -260h-155z" />
    <glyph glyph-name="eacute" unicode="&#xe9;" horiz-adv-x="1130" 
d="M74 518q0 124 40 224t109.5 171t164.5 109.5t206 38.5q109 0 192.5 -38t139.5 -104t85 -154.5t29 -189.5q0 -10 -1 -23.5t-2 -26.5q-2 -15 -3 -31h-755q4 -83 34.5 -148t79 -109t111 -67t131.5 -23q67 0 122 18.5t96 41.5q47 26 85 61l86 -141q-47 -43 -108 -76
q-52 -29 -125.5 -52.5t-165.5 -23.5q-123 0 -224.5 41.5t-174 114.5t-112.5 172.5t-40 214.5zM836 639q-3 64 -23 113.5t-53 83t-76.5 50.5t-91.5 17q-57 0 -107.5 -17t-90.5 -50.5t-68 -83t-39 -113.5h549zM657 1448h201l-195 -260h-155z" />
    <glyph glyph-name="ecircumflex" unicode="&#xea;" horiz-adv-x="1130" 
d="M74 518q0 124 40 224t109.5 171t164.5 109.5t206 38.5q109 0 192.5 -38t139.5 -104t85 -154.5t29 -189.5q0 -10 -1 -23.5t-2 -26.5q-2 -15 -3 -31h-755q4 -83 34.5 -148t79 -109t111 -67t131.5 -23q67 0 122 18.5t96 41.5q47 26 85 61l86 -141q-47 -43 -108 -76
q-52 -29 -125.5 -52.5t-165.5 -23.5q-123 0 -224.5 41.5t-174 114.5t-112.5 172.5t-40 214.5zM836 639q-3 64 -23 113.5t-53 83t-76.5 50.5t-91.5 17q-57 0 -107.5 -17t-90.5 -50.5t-68 -83t-39 -113.5h549zM496 1448h182l180 -260h-162l-106 164h-4l-109 -164h-160z" />
    <glyph glyph-name="edieresis" unicode="&#xeb;" horiz-adv-x="1130" 
d="M74 518q0 124 40 224t109.5 171t164.5 109.5t206 38.5q109 0 192.5 -38t139.5 -104t85 -154.5t29 -189.5q0 -10 -1 -23.5t-2 -26.5q-2 -15 -3 -31h-755q4 -83 34.5 -148t79 -109t111 -67t131.5 -23q67 0 122 18.5t96 41.5q47 26 85 61l86 -141q-47 -43 -108 -76
q-52 -29 -125.5 -52.5t-165.5 -23.5q-123 0 -224.5 41.5t-174 114.5t-112.5 172.5t-40 214.5zM836 639q-3 64 -23 113.5t-53 83t-76.5 50.5t-91.5 17q-57 0 -107.5 -17t-90.5 -50.5t-68 -83t-39 -113.5h549zM682 1448h149v-207h-149v207zM344 1448h151v-207h-151v207z" />
    <glyph glyph-name="igrave" unicode="&#xec;" horiz-adv-x="567" 
d="M184 821q0 45 -45 45h-84v170h197q69 0 100 -31t31 -100v-690q0 -45 45 -45h84v-170h-195q-71 0 -102 31t-31 100v690zM-6 1446h201l149 -260h-156z" />
    <glyph glyph-name="iacute" unicode="&#xed;" horiz-adv-x="567" 
d="M184 821q0 45 -45 45h-84v170h197q69 0 100 -31t31 -100v-690q0 -45 45 -45h84v-170h-195q-71 0 -102 31t-31 100v690zM338 1446h201l-195 -260h-156z" />
    <glyph glyph-name="icircumflex" unicode="&#xee;" horiz-adv-x="567" 
d="M184 821q0 45 -45 45h-84v170h197q69 0 100 -31t31 -100v-690q0 -45 45 -45h84v-170h-195q-71 0 -102 31t-31 100v690zM178 1446h182l181 -260h-164l-107 166h-4l-106 -166h-162z" />
    <glyph glyph-name="idieresis" unicode="&#xef;" horiz-adv-x="567" 
d="M184 821q0 45 -45 45h-84v170h197q69 0 100 -31t31 -100v-690q0 -45 45 -45h84v-170h-195q-71 0 -102 31t-31 100v690zM332 1446h151v-207h-151v207zM47 1446h150v-207h-150v207z" />
    <glyph glyph-name="eth" unicode="&#xf0;" horiz-adv-x="1178" 
d="M78 481q0 91 31.5 176t93 151t152 106t208.5 40q62 0 108.5 -13.5t78.5 -29.5q37 -19 65 -43h4q-32 87 -90 154.5t-133 118.5l-371 -164l-20 127l254 113q-62 30 -129 54t-135 40l55 162q109 -25 217 -65.5t207 -98.5l284 125l19 -125l-189 -86q65 -54 119 -122t93 -150
t61 -179t22 -209q0 -69 -12.5 -139.5t-39.5 -135.5t-68.5 -122.5t-99 -99.5t-132.5 -66.5t-168 -24.5q-117 0 -207 43t-152 114t-94 162t-32 187zM279 477q0 -63 18.5 -122.5t54.5 -105.5t90 -74t125 -28q84 0 143.5 35t97.5 89.5t55.5 122.5t17.5 134q0 58 -20.5 107
t-58 84.5t-91 55.5t-119.5 20q-80 0 -139 -27t-97.5 -72t-57.5 -102t-19 -117z" />
    <glyph glyph-name="ntilde" unicode="&#xf1;" horiz-adv-x="1282" 
d="M174 821q0 45 -45 45h-84v170h191q131 0 131 -114v-39q0 -13 -1 -23.5t-2 -18.5q-1 -10 -2 -18h5q15 34 46 75.5t79 77.5t113.5 60.5t150.5 24.5q184 0 270 -99.5t86 -297.5v-449q0 -45 45 -45h84v-170h-197q-69 0 -100 31t-31 100v487q0 55 -7 102.5t-28 82.5t-59 55.5
t-100 20.5q-60 0 -113 -18.5t-95.5 -52.5t-73.5 -80.5t-46 -102.5q-11 -31 -14.5 -66t-3.5 -74v-485h-199v821zM313 1190q0 260 211 260q53 0 88 -21.5t62.5 -48t53 -48t59.5 -21.5q23 0 38.5 12.5t25 32t13.5 43t4 45.5h136q0 -128 -53 -194t-158 -66q-35 0 -62 10.5
t-48.5 25.5t-39.5 33.5t-35.5 33.5t-36 25.5t-40.5 10.5q-23 0 -39 -12t-25.5 -31t-13.5 -43t-4 -47h-136z" />
    <glyph glyph-name="ograve" unicode="&#xf2;" horiz-adv-x="1264" 
d="M74 520q0 118 43.5 217t119 171t177 112.5t217.5 40.5t218 -40.5t177.5 -112.5t119.5 -171t44 -217t-44 -218t-119.5 -172.5t-177.5 -113.5t-218 -41t-217.5 41t-177 113.5t-119 172.5t-43.5 218zM276 520q0 -81 28 -149.5t76.5 -118t113 -77.5t137.5 -28t138 28
t113.5 77.5t76.5 118t28 149.5t-28 148.5t-76.5 116.5t-113.5 76.5t-138 27.5t-137.5 -27.5t-113 -76.5t-76.5 -116.5t-28 -148.5zM356 1448h201l149 -260h-155z" />
    <glyph glyph-name="oacute" unicode="&#xf3;" horiz-adv-x="1264" 
d="M74 520q0 118 43.5 217t119 171t177 112.5t217.5 40.5t218 -40.5t177.5 -112.5t119.5 -171t44 -217t-44 -218t-119.5 -172.5t-177.5 -113.5t-218 -41t-217.5 41t-177 113.5t-119 172.5t-43.5 218zM276 520q0 -81 28 -149.5t76.5 -118t113 -77.5t137.5 -28t138 28
t113.5 77.5t76.5 118t28 149.5t-28 148.5t-76.5 116.5t-113.5 76.5t-138 27.5t-137.5 -27.5t-113 -76.5t-76.5 -116.5t-28 -148.5zM700 1448h201l-195 -260h-155z" />
    <glyph glyph-name="ocircumflex" unicode="&#xf4;" horiz-adv-x="1264" 
d="M74 520q0 118 43.5 217t119 171t177 112.5t217.5 40.5t218 -40.5t177.5 -112.5t119.5 -171t44 -217t-44 -218t-119.5 -172.5t-177.5 -113.5t-218 -41t-217.5 41t-177 113.5t-119 172.5t-43.5 218zM276 520q0 -81 28 -149.5t76.5 -118t113 -77.5t137.5 -28t138 28
t113.5 77.5t76.5 118t28 149.5t-28 148.5t-76.5 116.5t-113.5 76.5t-138 27.5t-137.5 -27.5t-113 -76.5t-76.5 -116.5t-28 -148.5zM541 1448h182l180 -260h-162l-106 164h-4l-109 -164h-160z" />
    <glyph glyph-name="otilde" unicode="&#xf5;" horiz-adv-x="1264" 
d="M74 520q0 118 43.5 217t119 171t177 112.5t217.5 40.5t218 -40.5t177.5 -112.5t119.5 -171t44 -217t-44 -218t-119.5 -172.5t-177.5 -113.5t-218 -41t-217.5 41t-177 113.5t-119 172.5t-43.5 218zM276 520q0 -81 28 -149.5t76.5 -118t113 -77.5t137.5 -28t138 28
t113.5 77.5t76.5 118t28 149.5t-28 148.5t-76.5 116.5t-113.5 76.5t-138 27.5t-137.5 -27.5t-113 -76.5t-76.5 -116.5t-28 -148.5zM284 1190q0 260 211 260q53 0 88 -21.5t62.5 -48t53 -48t59.5 -21.5q23 0 38.5 12.5t25 32t13.5 43t4 45.5h136q0 -128 -53 -194t-158 -66
q-35 0 -62 10.5t-48.5 25.5t-39.5 33.5t-35.5 33.5t-36 25.5t-40.5 10.5q-23 0 -39 -12t-25.5 -31t-13.5 -43t-4 -47h-136z" />
    <glyph glyph-name="odieresis" unicode="&#xf6;" horiz-adv-x="1264" 
d="M74 520q0 118 43.5 217t119 171t177 112.5t217.5 40.5t218 -40.5t177.5 -112.5t119.5 -171t44 -217t-44 -218t-119.5 -172.5t-177.5 -113.5t-218 -41t-217.5 41t-177 113.5t-119 172.5t-43.5 218zM276 520q0 -81 28 -149.5t76.5 -118t113 -77.5t137.5 -28t138 28
t113.5 77.5t76.5 118t28 149.5t-28 148.5t-76.5 116.5t-113.5 76.5t-138 27.5t-137.5 -27.5t-113 -76.5t-76.5 -116.5t-28 -148.5zM727 1448h149v-207h-149v207zM389 1448h151v-207h-151v207z" />
    <glyph glyph-name="divide" unicode="&#xf7;" 
d="M518 1077h193v-186h-193v186zM98 664h1035v-160h-1035v160zM518 276h193v-186h-193v186z" />
    <glyph glyph-name="oslash" unicode="&#xf8;" horiz-adv-x="1264" 
d="M270 100q-91 73 -143.5 181t-52.5 239q0 118 43.5 217t119 171t177 112.5t217.5 40.5q75 0 145.5 -18t132.5 -52l82 115l96 -70l-79 -110q83 -75 132.5 -178t49.5 -228q0 -118 -44 -218t-119.5 -172.5t-177.5 -113.5t-218 -41q-142 0 -260 62l-80 -115l-98 72zM803 844
q-38 21 -81 33t-91 12q-73 0 -137.5 -27.5t-113 -76.5t-76.5 -116.5t-28 -148.5t27.5 -148t77.5 -118zM477 184q72 -37 154 -37q73 0 138 28t113.5 77.5t76.5 118t28 149.5q0 74 -24.5 137t-69.5 109z" />
    <glyph glyph-name="ugrave" unicode="&#xf9;" horiz-adv-x="1272" 
d="M170 821q0 45 -45 45h-84v170h195q71 0 102 -30.5t31 -96.5v-491q0 -54 7 -101t27.5 -82t58 -55t99.5 -20q80 0 142.5 32.5t106 86.5t66.5 124.5t23 147.5v485h199v-821q0 -45 45 -45h84v-170h-191q-66 0 -98.5 29.5t-32.5 85.5v39v22.5t1 18.5q0 10 1 18h-4
q-16 -38 -49 -80t-81 -77t-111 -58t-140 -23q-175 0 -263.5 96t-88.5 302v448zM348 1448h201l149 -260h-155z" />
    <glyph glyph-name="uacute" unicode="&#xfa;" horiz-adv-x="1272" 
d="M170 821q0 45 -45 45h-84v170h195q71 0 102 -30.5t31 -96.5v-491q0 -54 7 -101t27.5 -82t58 -55t99.5 -20q80 0 142.5 32.5t106 86.5t66.5 124.5t23 147.5v485h199v-821q0 -45 45 -45h84v-170h-191q-66 0 -98.5 29.5t-32.5 85.5v39v22.5t1 18.5q0 10 1 18h-4
q-16 -38 -49 -80t-81 -77t-111 -58t-140 -23q-175 0 -263.5 96t-88.5 302v448zM692 1448h201l-195 -260h-155z" />
    <glyph glyph-name="ucircumflex" unicode="&#xfb;" horiz-adv-x="1272" 
d="M170 821q0 45 -45 45h-84v170h195q71 0 102 -30.5t31 -96.5v-491q0 -54 7 -101t27.5 -82t58 -55t99.5 -20q80 0 142.5 32.5t106 86.5t66.5 124.5t23 147.5v485h199v-821q0 -45 45 -45h84v-170h-191q-66 0 -98.5 29.5t-32.5 85.5v39v22.5t1 18.5q0 10 1 18h-4
q-16 -38 -49 -80t-81 -77t-111 -58t-140 -23q-175 0 -263.5 96t-88.5 302v448zM531 1448h182l180 -260h-162l-106 164h-4l-109 -164h-160z" />
    <glyph glyph-name="udieresis" unicode="&#xfc;" horiz-adv-x="1272" 
d="M170 821q0 45 -45 45h-84v170h195q71 0 102 -30.5t31 -96.5v-491q0 -54 7 -101t27.5 -82t58 -55t99.5 -20q80 0 142.5 32.5t106 86.5t66.5 124.5t23 147.5v485h199v-821q0 -45 45 -45h84v-170h-191q-66 0 -98.5 29.5t-32.5 85.5v39v22.5t1 18.5q0 10 1 18h-4
q-16 -38 -49 -80t-81 -77t-111 -58t-140 -23q-175 0 -263.5 96t-88.5 302v448zM717 1448h149v-207h-149v207zM379 1448h151v-207h-151v207z" />
    <glyph glyph-name="yacute" unicode="&#xfd;" horiz-adv-x="1118" 
d="M92 -184q0 -1 11.5 -12.5t31.5 -25t48 -25t61 -11.5q60 0 106.5 40t75.5 109l47 113l-354 821q-11 25 -26 33t-40 8h-24v170h116q31 0 53.5 -4.5t39.5 -16.5t30 -32t25 -51l235 -584q8 -20 14.5 -41.5t11.5 -40.5q6 -22 11 -43h4q5 21 10 43q5 19 11 40.5t14 41.5
l215 584q12 31 25 51t31 32t41 16.5t55 4.5h119v-170h-27q-25 0 -40 -8t-26 -33l-409 -1011q-48 -120 -136.5 -182t-197.5 -62q-58 0 -103 15.5t-77 35.5q-37 22 -64 51zM629 1448h201l-195 -260h-155z" />
    <glyph glyph-name="thorn" unicode="&#xfe;" horiz-adv-x="1231" 
d="M168 1231q0 45 -45 45h-84v170h197q69 0 100 -31t31 -100v-334q0 -20 -1 -36.5t-2 -28.5q-1 -14 -2 -25h5q46 80 124.5 125t200.5 45q107 0 192.5 -40t145.5 -112t92.5 -172t32.5 -219q0 -118 -32.5 -217.5t-92.5 -172t-145.5 -113t-192.5 -40.5q-46 0 -84 7t-69.5 18.5
t-56.5 26.5t-44 31q-45 36 -71 83h-5q1 -11 2 -25q1 -12 2 -28.5t1 -36.5v-461h-199v1641zM360 518q0 -102 25 -172.5t67 -115t96.5 -64t113.5 -19.5q66 0 119.5 27t91.5 76t58.5 117.5t20.5 150.5t-20.5 150.5t-58.5 117.5t-91.5 76t-119.5 27q-61 0 -115.5 -19.5
t-96 -63.5t-66 -115t-24.5 -173z" />
    <glyph glyph-name="ydieresis" unicode="&#xff;" horiz-adv-x="1118" 
d="M92 -184q0 -1 11.5 -12.5t31.5 -25t48 -25t61 -11.5q60 0 106.5 40t75.5 109l47 113l-354 821q-11 25 -26 33t-40 8h-24v170h116q31 0 53.5 -4.5t39.5 -16.5t30 -32t25 -51l235 -584q8 -20 14.5 -41.5t11.5 -40.5q6 -22 11 -43h4q5 21 10 43q5 19 11 40.5t14 41.5
l215 584q12 31 25 51t31 32t41 16.5t55 4.5h119v-170h-27q-25 0 -40 -8t-26 -33l-409 -1011q-48 -120 -136.5 -182t-197.5 -62q-58 0 -103 15.5t-77 35.5q-37 22 -64 51zM654 1448h149v-207h-149v207zM316 1448h151v-207h-151v207z" />
    <glyph glyph-name="OE" unicode="&#x152;" horiz-adv-x="1903" 
d="M70 725q0 156 54 291t149 234.5t225 156.5t282 57q85 0 158.5 -9t136.5 -9h592q71 0 102 -31t31 -100v-182h-188v92q0 23 -12 34t-33 11h-400v-453h496v-176h-496v-465h457q22 0 33.5 12t11.5 33v92h186v-182q0 -69 -29.5 -100t-94.5 -31h-656q-62 0 -136 -9t-159 -9
q-101 0 -193 26t-171 73.5t-143 115t-109 150t-69.5 178t-24.5 200.5zM283 725q0 -118 36 -219t101.5 -175.5t157 -116.5t202.5 -42q54 0 102.5 4t80.5 12v1069q-34 8 -81.5 12.5t-101.5 4.5q-111 0 -202.5 -42t-157 -115.5t-101.5 -174t-36 -217.5z" />
    <glyph glyph-name="oe" unicode="&#x153;" horiz-adv-x="2052" 
d="M74 516q0 123 44 223.5t120 172t176.5 110.5t214.5 39q78 0 146.5 -17.5t125.5 -49.5t102.5 -77.5t79.5 -101.5h4q62 116 169.5 181t256.5 65q110 0 194 -38t140.5 -104t85.5 -154.5t29 -189.5q0 -10 -1 -23.5t-2 -26.5q-2 -15 -3 -31h-756q6 -86 37.5 -150.5
t79.5 -108.5t109.5 -66t129.5 -22q67 0 122.5 18.5t96.5 41.5q48 26 85 61l86 -141q-47 -43 -108 -76q-53 -29 -126.5 -52.5t-167.5 -23.5q-81 0 -149.5 18t-125.5 51t-101.5 79.5t-75.5 103.5h-5q-34 -57 -80 -103.5t-103.5 -79.5t-126 -51t-146.5 -18q-114 0 -215.5 38.5
t-177.5 109t-120 170.5t-44 223zM1757 639q-3 64 -22.5 113.5t-52 83t-76 50.5t-93.5 17q-57 0 -107.5 -17t-90.5 -50.5t-67.5 -83t-39.5 -113.5h549zM276 516q0 -84 28 -152.5t76.5 -116.5t113 -74t137.5 -26q72 0 136.5 26t113.5 75t77.5 118t28.5 156q0 84 -29 151.5
t-78.5 115.5t-114 74t-134.5 26q-73 0 -137.5 -26.5t-113 -75.5t-76.5 -118t-28 -153z" />
    <glyph glyph-name="Scaron" unicode="&#x160;" horiz-adv-x="1092" 
d="M190 336q45 -49 101 -87q48 -33 114.5 -60t147.5 -27q51 0 96 15t78.5 42.5t53.5 67.5t20 90q0 57 -30 99t-79 76t-112 63t-128.5 60t-128.5 67t-112 83.5t-79 110.5t-30 147q0 81 34 152t95.5 123t146.5 82t187 30q38 0 83.5 -6t91.5 -19t88.5 -34t75.5 -50.5t53 -68.5
t20 -88v-119h-189v68q0 28 -18.5 52.5t-49.5 41.5t-71.5 27t-83.5 10q-58 0 -105 -15t-80 -41.5t-51 -62t-18 -75.5q0 -55 30 -95t79 -72t111.5 -59t128 -57t128 -66t111.5 -85t79 -114.5t30 -154.5q0 -83 -31.5 -157.5t-90.5 -131t-144 -90t-193 -33.5q-58 0 -109 9
t-95.5 24t-82.5 34.5t-68 39.5q-71 48 -124 108zM288 1806h162l107 -166h4l106 166h164l-180 -260h-182z" />
    <glyph glyph-name="scaron" unicode="&#x161;" horiz-adv-x="930" 
d="M158 291q37 -44 85 -77q41 -29 98.5 -53t129.5 -24q36 0 68.5 8t57.5 24.5t39.5 41.5t14.5 59q0 35 -24.5 61.5t-64 48.5t-90.5 42t-103.5 42.5t-103.5 49.5t-90.5 63t-64 83t-24.5 110q0 75 30.5 129.5t83 90.5t122.5 53.5t149 17.5q31 0 68.5 -4t75 -13t73 -24
t63 -37.5t44 -53t16.5 -69.5v-98h-178v51q0 23 -15.5 39.5t-38.5 27.5t-50.5 16t-51.5 5q-88 0 -140 -30.5t-52 -92.5q0 -37 24.5 -63.5t64 -48.5t90.5 -41t103.5 -40.5t103.5 -47.5t90.5 -61.5t64 -83.5t24.5 -113q0 -69 -29 -125.5t-80 -96t-121 -61t-151 -21.5
q-52 0 -97 7.5t-84 20.5t-71.5 29.5t-58.5 33.5q-61 40 -103 92zM192 1448h162l107 -166h4l106 166h164l-180 -260h-182z" />
    <glyph glyph-name="Ydieresis" unicode="&#x178;" horiz-adv-x="1235" 
d="M516 631l-366 588q-20 32 -38.5 41.5t-50.5 9.5h-41v176h95q37 0 64 -3.5t48.5 -15.5t41 -34t40.5 -58l219 -364q17 -30 33.5 -59t28.5 -52q14 -27 26 -51h5q11 24 25 51q12 23 28 52t35 59l217 364q21 36 40.5 58t41.5 34t49 15.5t63 3.5h94v-176h-38q-32 0 -51.5 -9.5
t-39.5 -41.5l-364 -588v-631h-205v631zM715 1806h149v-207h-149v207zM377 1806h151v-207h-151v207z" />
    <glyph glyph-name="Zcaron" unicode="&#x17d;" horiz-adv-x="1192" 
d="M37 135l713 1004q21 30 40.5 54.5t34.5 41.5q18 20 33 37v4q-12 -2 -28 -3q-27 -3 -80 -3h-465q-45 0 -45 -45v-92h-187v182q0 69 31 100t100 31h928v-133l-715 -1006q-21 -30 -40 -54.5t-34 -41.5q-18 -20 -32 -35v-4q12 1 28 2q14 1 33 1.5t45 0.5h510q22 0 33.5 12
t11.5 33v92h189v-182q0 -69 -31 -100t-100 -31h-973v135zM336 1806h162l107 -166h4l106 166h164l-180 -260h-182z" />
    <glyph glyph-name="zcaron" unicode="&#x17e;" horiz-adv-x="1034" 
d="M68 115l530 655q17 20 32.5 38t27.5 31q14 15 26 27v4q-10 -1 -25 -2q-13 -1 -31.5 -1.5t-43.5 -0.5h-283q-45 0 -45 -45v-69h-182v153q0 69 31 100t100 31h741v-114l-532 -658q-17 -20 -32 -36.5t-27 -29.5q-14 -15 -27 -28v-4q9 1 24 2q12 1 31 1.5t45 0.5h332
q21 0 33 11.5t12 33.5v70h180v-154q0 -69 -31 -100t-100 -31h-786v115zM262 1448h162l107 -166h4l106 166h164l-180 -260h-182z" />
    <glyph glyph-name="florin" unicode="&#x192;" horiz-adv-x="737" 
d="M-35 -115q-17 0 -30 0.5t-23 1.5q-11 1 -21 2l17 172q6 -1 14 -2q7 -1 15.5 -1.5t19.5 -0.5q28 0 66 7.5t73.5 31.5t62.5 69t34 120l36 432h-153v160h168l18 194q8 85 33 147t61 105t79.5 69t88 40t86 19t74.5 5q17 0 31.5 -1t24.5 -2q11 -2 20 -3l-17 -170q-6 1 -13 2
q-6 1 -15.5 1.5t-20.5 0.5q-29 0 -67 -7.5t-73 -31t-61.5 -68.5t-33.5 -120l-19 -180h217v-160h-229l-39 -447q-8 -86 -33 -147.5t-61.5 -104.5t-80 -69t-88 -40t-86.5 -19t-75 -5z" />
    <glyph glyph-name="circumflex" unicode="&#x2c6;" horiz-adv-x="993" 
d="M406 1806h182l180 -260h-162l-106 164h-4l-109 -164h-160z" />
    <glyph glyph-name="caron" unicode="&#x2c7;" horiz-adv-x="999" 
d="M225 1806h162l107 -166h4l106 166h164l-180 -260h-182z" />
    <glyph glyph-name="ring" unicode="&#x2da;" horiz-adv-x="778" 
d="M389 1522q-33 0 -63 10.5t-53 30t-36.5 47.5t-13.5 63q0 36 13.5 64.5t36.5 48.5t53 30.5t63 10.5q32 0 62 -10.5t53 -30.5t37 -48.5t14 -64.5q0 -35 -14 -63t-37 -47.5t-53 -30t-62 -10.5zM389 1606q31 0 50.5 19t19.5 48q0 32 -19.5 52t-50.5 20t-50.5 -20t-19.5 -52
q0 -29 19.5 -48t50.5 -19z" />
    <glyph glyph-name="tilde" unicode="&#x2dc;" horiz-adv-x="1063" 
d="M188 1548q0 260 211 260q53 0 88 -21.5t62.5 -48t53 -48t59.5 -21.5q23 0 38.5 12.5t25 32t13.5 43t4 45.5h136q0 -128 -53 -194t-158 -66q-35 0 -62 10.5t-48.5 25.5t-39.5 33.5t-35.5 33.5t-36 25.5t-40.5 10.5q-23 0 -39 -12t-25.5 -31t-13.5 -43t-4 -47h-136z" />
    <glyph glyph-name="endash" unicode="&#x2013;" horiz-adv-x="1335" 
d="M129 664h1077v-160h-1077v160z" />
    <glyph glyph-name="emdash" unicode="&#x2014;" horiz-adv-x="1745" 
d="M129 664h1487v-160h-1487v160z" />
    <glyph glyph-name="quoteleft" unicode="&#x2018;" horiz-adv-x="467" 
d="M229 1468h142l-88 -399h-187z" />
    <glyph glyph-name="quoteright" unicode="&#x2019;" horiz-adv-x="467" 
d="M184 1470h187l-133 -399h-142z" />
    <glyph glyph-name="quotesinglbase" unicode="&#x201a;" horiz-adv-x="467" 
d="M371 215l-133 -399h-142l88 399h187z" />
    <glyph glyph-name="quotedblleft" unicode="&#x201c;" horiz-adv-x="752" 
d="M512 1468h143l-88 -399h-188zM229 1468h142l-88 -399h-187z" />
    <glyph glyph-name="quotedblright" unicode="&#x201d;" horiz-adv-x="752" 
d="M467 1470h188l-133 -399h-143zM184 1470h187l-133 -399h-142z" />
    <glyph glyph-name="quotedblbase" unicode="&#x201e;" horiz-adv-x="752" 
d="M467 215h188l-133 -399h-143zM371 215l-133 -399h-142l88 399h187z" />
    <glyph glyph-name="dagger" unicode="&#x2020;" horiz-adv-x="807" 
d="M305 879h-248v157h248v410h191v-410h254v-157h-254v-981h-191v981z" />
    <glyph glyph-name="daggerdbl" unicode="&#x2021;" horiz-adv-x="807" 
d="M305 350h-248v160h248v369h-248v157h248v410h191v-410h254v-157h-254v-369h254v-160h-254v-452h-191v452z" />
    <glyph glyph-name="bullet" unicode="&#x2022;" horiz-adv-x="930" 
d="M465 279q-66 0 -124 25t-101 67.5t-68 100.5t-25 124t25 124t68 100.5t101 67.5t124 25q65 0 122.5 -25t100 -67.5t67.5 -100.5t25 -124t-25 -124t-67.5 -100.5t-100 -67.5t-122.5 -25z" />
    <glyph glyph-name="ellipsis" unicode="&#x2026;" horiz-adv-x="1851" 
d="M1356 211h203v-211h-203v211zM823 211h205v-211h-205v211zM293 211h203v-211h-203v211z" />
    <glyph glyph-name="perthousand" unicode="&#x2030;" horiz-adv-x="2279" 
d="M430 864q-65 0 -121 23.5t-98 65t-66 96.5t-24 118q0 62 24 117t66 96.5t98 65.5t121 24q64 0 121 -24t99 -65.5t66.5 -96.5t24.5 -117q0 -63 -24.5 -118t-66.5 -96.5t-99 -65t-121 -23.5zM1257 1446h193l-1106 -1446h-192zM430 1016q32 0 60 11.5t48.5 31.5t32 48
t11.5 60q0 31 -11.5 59t-32 49t-48.5 33.5t-60 12.5t-60 -12.5t-48 -33.5t-31.5 -49t-11.5 -59q0 -32 11.5 -60t31.5 -48t48 -31.5t60 -11.5zM1589 279q0 62 24 117t66 96.5t98 65.5t121 24t122 -24t99 -65.5t66.5 -96.5t24.5 -117q0 -63 -24.5 -118.5t-66.5 -96.5t-99 -65
t-122 -24t-121 24t-98 65t-66 96.5t-24 118.5zM862 279q0 62 24 117t66 96.5t99 65.5t123 24q63 0 119.5 -24t99 -65.5t67.5 -96.5t25 -117q0 -63 -25 -118.5t-67.5 -96.5t-99 -65t-119.5 -24q-66 0 -123 24t-99 65t-66 96.5t-24 118.5zM1747 279q0 -32 11.5 -60t31.5 -48.5
t48 -32t60 -11.5q33 0 60.5 11.5t48 32t32 48.5t11.5 60q0 31 -11.5 59t-32 49t-48 33t-60.5 12q-32 0 -60 -12t-48 -33t-31.5 -49t-11.5 -59zM1022 279q0 -32 11.5 -60t32 -48.5t48 -32t60.5 -11.5q31 0 58.5 11.5t48 32t32.5 48.5t12 60q0 31 -12 59t-32.5 49t-48 33
t-58.5 12q-33 0 -60.5 -12t-48 -33t-32 -49t-11.5 -59z" />
    <glyph glyph-name="guilsinglleft" unicode="&#x2039;" horiz-adv-x="752" 
d="M86 578l336 421h199l-336 -421l336 -420h-199z" />
    <glyph glyph-name="guilsinglright" unicode="&#x203a;" horiz-adv-x="752" 
d="M463 578l-336 421h199l336 -421l-336 -420h-199z" />
    <glyph glyph-name="Euro" unicode="&#x20ac;" horiz-adv-x="1231" 
d="M80 657h121l-2 22q-1 10 -1.5 22t-0.5 24q0 11 0.5 25.5t1.5 26.5l2 28h-121v131h143q31 117 96 215t156 169t203.5 110.5t239.5 39.5q41 0 76 -3.5t62 -8.5q31 -5 58 -12l-49 -186q-21 6 -46 11q-21 4 -48.5 7.5t-57.5 3.5q-86 0 -161 -24.5t-136 -70t-106 -109.5
t-70 -142h568l-29 -131h-569q-1 -11 -2 -23q-1 -11 -1.5 -24.5t-0.5 -28.5q0 -9 0.5 -21.5t1.5 -23.5q1 -13 2 -27h542l-24 -129h-484q24 -81 69 -147t106.5 -113.5t138 -73.5t162.5 -26q40 0 74.5 4.5t60.5 9.5q30 6 55 15l41 -187q-30 -10 -67 -18q-32 -7 -74 -12t-92 -5
q-132 0 -246 40.5t-204.5 114t-154 175t-92.5 223.5h-141v129z" />
    <glyph glyph-name="trademark" unicode="&#x2122;" horiz-adv-x="2013" 
d="M866 682h47q11 0 16 3.5t7 14.5l59 746h142l213 -471q6 -14 11 -29t9 -28q4 -15 8 -29h4q4 14 8 29q8 27 19 57l213 471h143l60 -746q0 -11 4.5 -14.5t15.5 -3.5h49v-137h-120q-28 0 -46.5 4t-29.5 14.5t-17 28t-8 45.5l-35 446q-2 24 0 43q1 11 2 19h-4l-194 -434h-125
l-195 434h-4q1 -8 2 -19q2 -19 0 -43l-35 -446q-2 -28 -7.5 -45.5t-17 -28t-29.5 -14.5t-46 -4h-119v137zM391 1309h-155q-11 0 -15 -4.5t-4 -14.5v-61h-137v125q0 27 4.5 44.5t15 28t29 15t47.5 4.5h586q55 0 75.5 -19.5t20.5 -72.5v-125h-135v61q0 10 -3.5 14.5t-14.5 4.5
h-158v-764h-156v764z" />
    <glyph glyph-name="glyph219" horiz-adv-x="0" 
 />
    </font>
</defs>
</svg>
